<?xml version="1.0" standalone="no"?>
<!DOCTYPE svg PUBLIC "-//W3C//DTD SVG 1.1//EN" "http://www.w3.org/Graphics/SVG/1.1/DTD/svg11.dtd">
<svg xmlns="http://www.w3.org/2000/svg">
<defs >
<font id="Rosario" horiz-adv-x="493" ><font-face
    font-family="Rosario"
    units-per-em="1000"
    panose-1="0 0 0 0 0 0 0 0 0 0"
    ascent="977"
    descent="-235"
    alphabetic="0" />
<glyph unicode=" " horiz-adv-x="234" />
<glyph unicode="!" horiz-adv-x="246" d="M138 728H255L154 217H95L138 728ZM169 62Q169 32 146 10T93 -13Q68 -13 52 3T35 44Q35 65 45 82T73 109T111 119Q136 119 152 103T169 62Z" />
<glyph unicode="&quot;" horiz-adv-x="300" d="M107 436H79L70 550L95 724H175L150 548L107 436ZM246 436H218L209 550L234 724H314L289 548L246 436Z" />
<glyph unicode="#" horiz-adv-x="640" d="M435 296H559V241H428L394 0H333L366 241H245L211 0H151L184 241H57V296H192L209 426H83V483H217L248 716H310L278 483H400L431 716H491L460 483H584V426H453L435 296ZM253 296H374L392 426H270L253 296Z" />
<glyph unicode="$" horiz-adv-x="535" d="M353 696Q382 696 409 691T463 676T513 649L471 581Q451 598 432 608T392 622T346 627Q311 627 279 614T226 575T205 512Q205 483 224 463T274 426T339 392T403 353T453 299T473 221Q473 151 439 99T347 19T222 -10Q173
-10 123 4T27 44L69 119Q98 99 120 86T167 66T226 59Q266 59 300 80T357 135T379 208Q379 241 360 263T311 303T246 336T182 373T132 423T113 497Q113 563 147 607T236 674T353 696ZM239 13L203 -138H131L193 13H239ZM318 668L352 812H426L366 668H318Z" />
<glyph unicode="%" horiz-adv-x="908" d="M682 730H748L269 -7H205L682 730ZM283 730Q332 730 361 710T404 655T418 575Q418 503 395 443T326 346T214 309Q165 309 135 330T92 386T78 467Q78 538 102 598T172 694T283 730ZM271 678Q227 678 199 648T157 569T144
466Q144 424 160 393T226 362Q272 362 299 392T339 472T352 578Q352 619 336 648T271 678ZM727 411Q776 411 806 391T849 335T863 254Q863 184 839 124T769 27T658 -10Q610 -10 580 10T537 66T523 146Q523 218 546 278T616 375T727 411ZM715 358Q671 358 643 328T601
249T588 145Q588 104 605 74T670 43Q716 43 743 73T783 152T796 257Q796 298 780 328T715 358ZM283 730H703L696 678H271L283 730Z" />
<glyph unicode="&amp;" horiz-adv-x="636" d="M231 418L247 357Q199 349 167 323T117 262T100 190Q100 155 115 124T163 74T242 55Q304 55 344 76T405 133T425 211Q425 246 413 281T375 350L434 389Q466 357 482 316T498 232Q498 187 481 144T428 67T341 12T218
-9Q147 -9 100 15T31 79T8 165Q8 215 33 266T109 357T231 418ZM387 735Q422 735 456 724T522 686L471 627Q429 671 388 671Q355 671 330 643T290 566T275 453Q275 377 293 309T344 189T425 104Q454 83 492 71T569 58Q583 58 595 59T621 65L630 -2Q611 -6 594 -7T559
-9Q527 -9 491 -2T420 19T357 52Q302 91 263 151T204 290T183 457Q183 547 211 609T287 703T387 735ZM384 418H612L594 350H375L384 418Z" />
<glyph unicode="&apos;" horiz-adv-x="157" d="M144 548L101 436H73L64 550L89 724H169L144 548Z" />
<glyph unicode="(" horiz-adv-x="323" d="M356 727Q250 611 196 475T141 189Q141 104 163 26T234 -130L169 -140Q115 -61 87 27T59 210Q59 309 88 402T171 581T292 737L356 727Z" />
<glyph unicode=")" horiz-adv-x="328" d="M297 386Q297 287 268 194T186 16T65 -140L0 -130Q106 -14 160 122T215 407Q215 493 193 572T122 727L187 737Q241 658 269 569T297 386Z" />
<glyph unicode="*" horiz-adv-x="470" d="M261 731H339L302 591H261V731ZM315 583L445 647L463 569L322 541L315 583ZM129 643L249 582L231 546L98 567L129 643ZM232 530L263 503L178 381L123 426L232 530ZM278 503L314 526L398 427L328 379L278 503Z" />
<glyph unicode="+" horiz-adv-x="642" d="M318 0H248L277 211H63L73 280H287L316 490H386L357 280H572L562 211H347L318 0Z" />
<glyph unicode="," horiz-adv-x="251" d="M171 50Q171 14 153 -18T106 -78T48 -125L18 -92Q39 -75 51 -62T70 -38T76 -18Q76 -8 66 1T46 22T36 54Q36 86 57 103T105 120Q137 120 154 100T171 50Z" />
<glyph unicode="-" horiz-adv-x="324" d="M34 222L45 293H286L275 222H34Z" />
<glyph unicode="." horiz-adv-x="247" d="M168 63Q168 32 145 10T92 -13Q67 -13 51 3T34 45Q34 65 44 82T72 109T109 120Q135 120 151 104T168 63Z" />
<glyph unicode="/" horiz-adv-x="293" d="M-14 -8L241 724H307L54 -8H-14Z" />
<glyph unicode="0" horiz-adv-x="533" d="M296 503Q363 503 408 474T475 396T498 284Q498 228 481 175T430 80T348 12T237 -13Q172 -13 127 16T58 96T35 206Q35 262 52 315T104 410T186 478T296 503ZM290 441Q241 441 208 419T155 360T127 280T118 194Q118 131
146 90T243 49Q293 49 326 71T378 130T406 211T415 297Q415 339 403 371T364 422T290 441Z" />
<glyph unicode="1" horiz-adv-x="376" d="M284 493L227 67H334L325 0H28L36 67H147L192 401L82 370L76 417L236 493H284Z" />
<glyph unicode="2" horiz-adv-x="434" d="M272 509Q328 509 367 483T406 400Q406 352 382 307T316 220T225 140T123 68H400L370 -1H-4L4 57Q64 96 121 136T223 218T296 301T323 385Q323 417 303 431T253 445Q217 445 175 428T104 381L66 434Q112 470 167 489T272 509Z" />
<glyph unicode="3" horiz-adv-x="380" d="M240 510Q296 510 330 486T364 410Q364 368 341 328T279 254T195 197Q228 196 257 183T306 143T325 75Q325 16 298 -29T224 -107T119 -160T-1 -189T-122 -196L-120 -152Q-59 -149 2 -136T115 -96T197 -30T228 66Q228 109
204 128T142 148Q128 148 112 145T78 137L62 185Q93 199 129 220T198 268T252 326T273 391Q273 416 259 431T219 446Q185 446 144 428T76 382L40 439Q86 474 139 492T240 510Z" />
<glyph unicode="4" horiz-adv-x="477" d="M311 498H409L349 69H450L422 0H339L313 -185H230L256 0H-16L-10 40L311 498ZM312 399L86 69H266L312 399Z" />
<glyph unicode="5" horiz-adv-x="364" d="M165 497H411L375 412H188L130 306Q204 274 247 225T291 105Q291 41 263 -12T186 -106T75 -173T-56 -209L-62 -165Q15 -146 72 -113T162 -28T194 93Q194 155 150 201T38 273L165 497Z" />
<glyph unicode="6" horiz-adv-x="518" d="M512 732L527 685Q445 653 374 601T250 484T166 344T136 194Q136 152 148 120T183 69T240 50Q284 50 316 77T365 145T382 226Q382 270 359 303T283 337Q250 337 212 324T134 282L155 346Q193 376 235 390T315 405Q372
405 409 383T463 325T481 245Q481 193 461 147T406 64T323 8T223 -13Q174 -13 132 8T65 74T39 185Q39 258 64 327T135 460T240 576T369 669T512 732Z" />
<glyph unicode="7" horiz-adv-x="406" d="M61 497H431L425 455L57 -185H-45L339 422H30L61 497Z" />
<glyph unicode="8" horiz-adv-x="471" d="M316 729Q354 729 387 715T440 672T461 599Q461 542 424 483T309 378L268 417Q324 449 353 497T383 589Q383 630 360 650T308 671Q276 671 251 653T212 605T198 541Q198 495 227 466T295 408Q327 385 358 358T410 296T431
211Q431 146 399 96T313 18T196 -11Q151 -11 113 5T51 55T27 136Q27 192 51 236T115 315T206 381L241 342Q180 305 145 257T110 147Q110 98 138 74T203 49Q239 49 268 68T315 119T333 188Q333 224 314 250T265 299T205 347Q179 369 156 393T118 449T104 520Q104
568 123 607T173 673T241 714T316 729Z" />
<glyph unicode="9" horiz-adv-x="524" d="M303 509Q353 509 394 488T461 423T487 311Q487 238 462 170T393 42T289 -67T160 -155T16 -216L2 -169Q84 -137 154 -88T278 24T360 156T390 302Q390 344 378 376T343 427T286 446Q243 446 211 419T161 352T143 271Q143
226 167 193T243 159Q276 159 314 172T391 214L370 150Q333 120 291 106T210 91Q153 91 117 113T63 171T45 250Q45 302 65 349T120 432T203 488T303 509Z" />
<glyph unicode=":" horiz-adv-x="247" d="M211 377Q211 347 188 325T135 302Q110 302 94 318T77 359Q77 389 100 411T153 434Q178 434 194 418T211 377ZM167 62Q167 32 144 10T91 -13Q66 -13 50 3T33 44Q33 74 56 96T109 119Q134 119 150 103T167 62Z" />
<glyph unicode=";" horiz-adv-x="251" d="M215 371Q215 351 204 334T176 306T139 295Q114 295 98 311T81 353Q81 383 104 405T156 428Q182 428 198 412T215 371ZM105 120Q137 120 154 100T171 50Q171 14 153 -18T106 -78T48 -125L18 -92Q39 -75 51 -62T70 -38T76
-18Q76 -8 66 1T46 22T36 54Q36 86 57 103T105 120Z" />
<glyph unicode="&lt;" horiz-adv-x="630" d="M73 281L601 494L591 418L161 243L541 68L531 -7L63 208L73 281Z" />
<glyph unicode="=" horiz-adv-x="630" d="M86 373H585L576 305H77L86 373ZM60 184H559L549 115H50L60 184Z" />
<glyph unicode="&gt;" horiz-adv-x="630" d="M43 68L473 243L93 418L103 494L571 281L561 208L33 -7L43 68Z" />
<glyph unicode="?" horiz-adv-x="427" d="M277 724Q317 724 351 709T406 664T427 589Q427 539 408 505T360 448T301 409Q261 387 232 367T203 313Q203 303 208 293T227 275T262 268L239 206Q201 206 176 221T138 258T125 304Q125 346 145 374T195 423T255 460Q292
481 314 505T337 574Q337 616 315 634T260 652Q213 652 170 620L153 687Q182 706 214 715T277 724ZM174 119Q199 119 215 103T232 63Q232 33 208 10T155 -13Q130 -13 114 3T98 44Q98 75 121 97T174 119Z" />
<glyph unicode="@" horiz-adv-x="1018" d="M552 728Q638 728 714 702T850 624T942 500T976 331Q976 270 959 210T910 101T833 23T730 -6Q699 -6 672 0T626 23T598 74H594Q571 33 532 10T451 -13Q397 -13 364 15T315 90T299 193Q299 249 314 304T361 404T439 476T550
503Q578 503 606 494T660 459L682 495H726Q711 396 701 329T684 219T674 152T669 115T668 94Q668 74 682 62T733 50Q775 50 808 74T864 138T899 229T911 331Q911 412 883 475T806 583T691 650T552 673Q444 673 362 632T225 523T143 371T115 201Q115 126 136 57T200
-66T307 -153T459 -185Q510 -185 563 -171L579 -224Q550 -231 520 -235T459 -240Q356 -240 280 -203T152 -104T76 39T50 204Q50 280 70 355T130 498T231 617T372 698T552 728ZM552 441Q506 441 474 419T421 361T391 281T382 194Q382 136 402 94T467 51Q500 51 525
72T570 130T601 212T620 307L635 416Q594 441 552 441Z" />
<glyph unicode="A" horiz-adv-x="605" d="M419 724L561 0H464L417 249H190L75 0H-6L332 724H419ZM351 602L221 316H404L351 602Z" />
<glyph unicode="B" horiz-adv-x="580" d="M550 574Q550 529 531 493T480 432T404 395Q463 380 498 341T534 235Q534 166 510 120T443 48T347 11T234 0H45L134 659V724H356Q395 724 429 717T491 693T534 647T550 574ZM456 570Q456 603 441 621T400 647T345 655H223L193
427H292Q341 427 377 442T435 488T456 570ZM441 241Q441 284 419 308T362 344T288 355H182L145 69H248Q305 69 348 86T416 142T441 241Z" />
<glyph unicode="C" horiz-adv-x="585" d="M317 -10Q248 -10 197 15T112 84T62 184T45 301Q45 378 69 454T142 594T261 695T423 734Q457 734 493 727T562 703T620 657L564 599Q534 634 494 649T413 665Q349 665 299 633T213 549T160 433T142 307Q142 243 162 188T225
99T333 65Q378 65 424 77T516 114L541 59Q510 37 473 22T397 -2T317 -10Z" />
<glyph unicode="D" horiz-adv-x="679" d="M639 434Q639 353 617 276T551 136T437 37T275 0H45L134 659V724H378Q446 724 495 702T577 640T624 547T639 434ZM545 430Q545 473 536 513T507 585T453 636T369 655H223L145 69H281Q337 69 380 91T455 152T506 237T535
334T545 430Z" />
<glyph unicode="E" horiz-adv-x="500" d="M133 724H544L534 655H221L189 405H431L421 337H179L143 69H456L447 0H45L133 659V724Z" />
<glyph unicode="F" horiz-adv-x="468" d="M132 724H512L503 655H221L189 406H412L402 338H179L133 0H44L132 659V724Z" />
<glyph unicode="G" horiz-adv-x="667" d="M422 734Q456 734 497 726T576 700T640 651L583 592Q558 618 533 634T479 657T413 665Q341 665 289 631T204 542T156 421T140 292Q140 247 149 206T180 133T237 83T323 65Q373 65 413 88T479 151T511 240L519 305H350L359
373H619Q605 278 595 187T576 0H528L509 75Q464 32 412 11T299 -10Q211 -10 155 29T72 135T45 281Q45 364 68 444T139 590T257 695T422 734Z" />
<glyph unicode="H" horiz-adv-x="672" d="M468 0L514 342H180L134 0H44L133 659V724H232L190 410H524L566 724H656L558 0H468Z" />
<glyph unicode="I" horiz-adv-x="251" d="M136 724H235L137 0H47L136 659V724Z" />
<glyph unicode="J" horiz-adv-x="253" d="M139 724H238L144 48Q137 -4 124 -50T87 -133T23 -193T-79 -222L-87 -170Q-47 -164 -21 -142T20 -88T44 -21T56 46L139 658V724Z" />
<glyph unicode="K" horiz-adv-x="558" d="M232 724L134 0H44L133 659V724H232ZM504 724H590L317 404L511 0H407L219 391L504 724Z" />
<glyph unicode="L" horiz-adv-x="471" d="M234 724L146 69H435L425 0H45L134 659V724H234Z" />
<glyph unicode="M" horiz-adv-x="789" d="M256 724L365 232Q369 214 372 196T379 151Q389 177 398 196T416 233L655 724H773L675 0H585L652 501Q655 523 658 546T664 599Q654 570 643 547T621 501L378 -2H325L217 499Q212 522 207 546T197 600Q194 570 191 546T185
499L117 0H44L132 660V724H256Z" />
<glyph unicode="N" horiz-adv-x="674" d="M248 724L477 252Q485 235 493 217T510 173Q512 197 514 215T519 249L584 724H657L559 -5H502L231 550Q224 566 217 582T201 622Q199 598 197 580T192 545L119 0H45L134 659V724H248Z" />
<glyph unicode="O" horiz-adv-x="708" d="M304 -10Q236 -10 187 13T107 78T60 174T45 289Q45 369 67 448T135 591T248 695T407 734Q499 734 556 695T641 588T668 438Q668 355 645 275T577 131T463 28T304 -10ZM317 59Q373 59 415 82T488 145T537 233T565 334T574
433Q574 492 558 545T504 631T398 665Q342 665 300 642T227 579T177 491T149 390T140 291Q140 233 156 180T211 93T317 59Z" />
<glyph unicode="P" horiz-adv-x="539" d="M135 724H332Q391 724 439 707T515 650T544 543Q544 465 511 408T418 318T279 286H175L137 0H46L135 659V724ZM225 655L185 353H285Q337 353 374 377T430 443T450 532Q450 592 417 623T324 655H225Z" />
<glyph unicode="Q" horiz-adv-x="708" d="M1084 -175Q1023 -196 972 -209T857 -222Q797 -222 736 -202T615 -152T499 -91T393 -38Q369 -27 346 -22T304 -15Q210 -7 153 34T71 142T45 289Q45 369 67 448T135 591T248 695T407 734Q499 734 556 695T641 588T668 438Q668
350 643 266T566 115T437 16Q451 11 466 5T493 -10Q534 -33 585 -58T691 -106T799 -143T899 -158Q926 -158 954 -154T1012 -143T1069 -128L1084 -175ZM317 59Q373 59 415 82T488 145T537 233T565 334T574 433Q574 477 565 518T536 593T482 645T398 665Q342 665
300 642T227 579T177 491T149 390T140 291Q140 233 156 180T211 93T317 59Z" />
<glyph unicode="R" horiz-adv-x="568" d="M135 0H44L133 659V724H349Q402 724 448 706T522 649T550 548Q550 494 529 448T466 369T365 321L534 0H430L235 372H257Q346 372 401 415T456 539Q456 598 422 626T331 655H223L135 0Z" />
<glyph unicode="S" horiz-adv-x="507" d="M338 734Q367 734 394 729T448 714T498 687L456 619Q436 636 417 646T377 660T331 665Q296 665 264 652T211 613T190 550Q190 516 209 492T259 449T324 411T388 367T438 307T458 221Q458 151 424 99T332 19T207 -10Q158
-10 108 4T12 44L54 119Q83 99 105 86T152 66T211 59Q251 59 285 80T342 135T364 208Q364 246 345 272T296 317T231 355T167 397T117 453T98 535Q98 601 132 645T221 712T338 734Z" />
<glyph unicode="T" horiz-adv-x="514" d="M50 724H558L549 655H340L252 0H161L249 655H40L50 724Z" />
<glyph unicode="U" horiz-adv-x="638" d="M206 724L141 243Q140 231 139 221T138 200Q138 160 152 128T197 78T280 59Q342 59 385 84T453 153T486 258L549 724H623L559 257Q549 183 517 123T424 26T268 -10Q206 -10 164 6T95 49T58 113T46 192Q46 204 47 217T50
244L106 660V724H206Z" />
<glyph unicode="V" horiz-adv-x="518" d="M139 724Q165 582 192 439T241 153Q282 248 325 343T413 534T501 724H578L241 -3H185L44 724H139Z" />
<glyph unicode="W" horiz-adv-x="795" d="M138 724Q145 667 152 611T167 498T181 385T194 272T206 158Q227 215 248 271T291 384T335 497T379 610T424 724H494Q501 667 508 611T523 498T537 385T550 272T561 158Q582 215 603 271T647 384T691 497T735 610T780
724H854L567 -3H494Q487 52 480 107T465 218T451 328T438 438T426 549Q406 494 386 439T344 328T300 218T256 108T212 -3H139L44 724H138Z" />
<glyph unicode="X" horiz-adv-x="545" d="M478 724H578L66 0H-33L478 724ZM185 724L502 0H398L83 724H185Z" />
<glyph unicode="Y" horiz-adv-x="477" d="M145 724L267 444L454 724H538L290 358L242 0H151L199 359L42 724H145Z" />
<glyph unicode="Z" horiz-adv-x="532" d="M101 724H546L537 657L99 69H470L454 0H-17L-8 67L430 655H92L101 724Z" />
<glyph unicode="[" horiz-adv-x="332" d="M234 675L128 -81H248L240 -130H42L163 724H361L354 675H234Z" />
<glyph unicode="\" horiz-adv-x="359" d="M5 724H72L321 0H257L5 724Z" />
<glyph unicode="]" horiz-adv-x="327" d="M-10 -128L-2 -79H118L224 676H103L111 724H309L188 -128H-10Z" />
<glyph unicode="^" horiz-adv-x="618" d="M332 400L98 0H21L307 491H380L528 0H452L332 400Z" />
<glyph unicode="_" horiz-adv-x="462" d="M-21 -128L-12 -73H480L471 -128H-21Z" />
<glyph unicode="`" horiz-adv-x="277" d="M221 733L295 581H217L99 733H221Z" />
<glyph unicode="a" horiz-adv-x="509" d="M418 495H462Q447 396 437 329T420 219T410 152T405 115T404 94Q404 76 411 65T437 54Q447 54 457 56T477 62L488 12Q472 3 452 -4T413 -11Q377 -11 356 13T334 74H330Q307 33 268 10T187 -13Q133 -13 100 15T51 90T35
193Q35 249 50 304T97 404T175 476T286 503Q317 503 348 491T407 448V389Q376 416 348 428T288 441Q242 441 210 419T157 361T127 281T118 194Q118 136 138 94T203 51Q236 51 261 72T306 130T337 212T356 307L371 419L418 495Z" />
<glyph unicode="b" horiz-adv-x="492" d="M40 33L127 707V764H215L171 436Q184 449 205 464T254 491T311 503Q364 503 396 476T442 404T457 300Q457 234 440 178T390 78T311 11T207 -13Q166 -13 121 -2T40 33L80 89Q115 64 144 57T204 49Q249 49 281 70T334 127T364
204T374 290Q374 352 356 392T295 432Q268 432 242 420T194 391T161 362L118 52L40 33Z" />
<glyph unicode="c" horiz-adv-x="420" d="M379 392Q355 415 331 425T283 436Q241 436 210 417T159 365T128 293T118 214Q118 131 148 93T233 54Q259 54 290 62T358 86L382 36Q342 11 300 -1T217 -13Q164 -13 123 11T59 84T35 204Q35 257 51 310T98 406T177 476T289
503Q324 503 359 492T429 452L379 392Z" />
<glyph unicode="d" horiz-adv-x="510" d="M410 710V764H497Q478 629 461 512T432 304T412 159T404 94Q404 76 411 65T437 54Q447 54 457 56T477 62L488 12Q472 3 452 -4T413 -11Q377 -11 356 13T334 74H330Q307 33 268 10T187 -13Q133 -13 100 15T51 90T35 193Q35
249 50 304T97 404T175 476T286 503Q317 503 348 491T407 448V389Q376 416 348 428T288 441Q242 441 210 419T157 361T127 281T118 194Q118 136 138 94T203 51Q236 51 261 72T306 130T337 212T356 307L410 710Z" />
<glyph unicode="e" horiz-adv-x="454" d="M292 503Q327 503 358 493T408 459T428 397Q428 350 404 313T336 251T234 213T107 202V261Q147 257 188 264T265 289T322 333T344 390Q344 416 326 428T282 441Q242 441 212 421T161 368T130 294T119 213Q119 132 154
95T247 57Q276 57 310 66T381 92L407 43Q389 30 368 20T325 3T279 -9T234 -13Q164 -13 120 17T56 97T36 207Q36 260 52 312T100 408T181 477T292 503Z" />
<glyph unicode="f" horiz-adv-x="269" d="M-93 -164Q-51 -173 -23 -162T22 -123T44 -52L109 427H38L46 490Q58 490 73 491T101 501T120 532Q132 580 147 622T187 698T247 751T337 770Q378 770 405 759T457 731L418 672Q402 689 383 698T343 707Q300 707 274 688T232
637T210 567T197 490H309L301 427H189L122 -61Q108 -163 46 -204T-107 -222L-93 -164Z" />
<glyph unicode="g" horiz-adv-x="486" d="M418 495H462L393 21Q387 -23 374 -67T335 -149T267 -208T157 -230Q120 -230 89 -221T36 -201T7 -185L48 -115Q69 -137 97 -151T148 -165Q203 -165 236 -144T286 -87T309 -7L318 52H314Q297 27 263 7T187 -13Q133 -13
100 15T51 90T35 193Q35 249 50 304T97 404T175 476T286 503Q317 503 348 491T407 448V389Q376 416 348 428T288 441Q242 441 210 419T157 361T127 281T118 194Q118 136 138 94T203 51Q236 51 261 72T306 130T337 212T356 307L371 419L418 495Z" />
<glyph unicode="h" horiz-adv-x="492" d="M218 764L172 433Q201 459 239 481T323 503Q359 503 387 491T432 451T449 373Q449 352 446 328L411 58L413 0H322L362 302Q364 314 365 327T366 354Q366 375 361 392T342 420T302 431Q280 431 258 423T217 402T184 378T164
362L115 0H35L130 707V764H218Z" />
<glyph unicode="i" horiz-adv-x="227" d="M227 668Q227 643 208 623T161 602Q139 602 125 616T110 652Q110 677 129 698T176 719Q199 719 213 704T227 668ZM186 490L128 58V0H40L98 433V490H186Z" />
<glyph unicode="j" horiz-adv-x="229" d="M229 668Q229 643 210 622T163 601Q140 601 126 616T112 652Q112 678 131 698T177 718Q200 718 214 704T229 668ZM189 490L125 25Q120 -13 109 -54T78 -133T26 -196T-53 -228L-64 -178Q-21 -159 0 -128T30 -60T44 13L102
433V490H189Z" />
<glyph unicode="k" horiz-adv-x="482" d="M330 503Q371 503 398 489T440 450T454 397Q454 344 415 296T290 219Q316 167 347 110T418 0H324Q284 59 251 125T188 249Q245 255 286 273T350 319T373 376Q373 403 354 417T308 431Q288 431 263 422T211 394T158 350V414Q179
437 207 457T267 490T330 503ZM223 764L119 0H39L135 707V764H223Z" />
<glyph unicode="l" horiz-adv-x="227" d="M223 764L128 58V0H39L135 707V764H223Z" />
<glyph unicode="m" horiz-adv-x="762" d="M164 500Q166 494 168 482T171 455T173 428Q193 446 216 463T265 491T320 503Q361 503 392 486T439 421Q460 440 484 458T537 490T597 503Q620 503 642 498T682 478T711 439T722 373Q722 363 722 352T719 329L683 58V0H596L636
303Q638 315 639 327T640 353Q640 374 635 391T616 420T575 431Q541 431 506 409T445 364L398 0H318L358 303Q360 315 361 328T362 355Q362 375 357 392T338 420T298 431Q279 431 259 422T219 401T187 379T169 365L120 0H41L88 359Q91 382 91 402Q91 443 84 466T76
490L164 500Z" />
<glyph unicode="n" horiz-adv-x="494" d="M164 500Q166 493 169 472T173 429Q193 446 217 463T269 491T330 503Q353 503 375 498T414 478T443 439T454 373Q454 353 451 329L415 58V0H327L368 303Q370 316 371 330T373 357Q373 377 368 393T349 420T308 431Q286
431 264 423T223 402T190 378T170 362L121 0H41L88 350Q90 364 91 377T92 402Q92 432 88 451T80 480T76 490L164 500Z" />
<glyph unicode="o" horiz-adv-x="499" d="M216 -13Q153 -13 113 17T55 97T36 204Q36 257 52 310T99 406T176 476T283 503Q346 503 385 473T444 393T463 286Q463 233 447 180T400 84T323 14T216 -13ZM223 49Q262 49 291 69T340 124T370 199T380 281Q380 323 370
359T336 418T276 441Q237 441 208 421T159 366T129 291T119 209Q119 167 129 131T163 72T223 49Z" />
<glyph unicode="p" horiz-adv-x="497" d="M317 503Q369 503 401 476T447 404T462 300Q462 234 445 178T395 78T316 11T212 -13Q183 -13 160 -9T118 1L96 -169V-224H8L81 333Q83 351 85 369T87 405Q87 425 84 446T73 490L161 501Q166 476 167 461T169 429Q186 447
209 464T259 492T317 503ZM300 432Q273 432 247 420T199 391T166 362L128 71Q141 62 163 56T209 49Q254 49 286 70T339 127T369 204T379 290Q379 352 361 392T300 432Z" />
<glyph unicode="q" horiz-adv-x="486" d="M418 495H462L370 -167V-223H282L318 52H314Q297 27 263 7T187 -13Q133 -13 100 15T51 90T35 193Q35 249 50 304T97 404T175 476T286 503Q317 503 348 491T407 448V389Q376 416 348 428T288 441Q242 441 210 419T157 361T127
281T118 194Q118 136 138 94T203 51Q236 51 261 72T306 130T337 212T356 307L371 419L418 495Z" />
<glyph unicode="r" horiz-adv-x="334" d="M168 502Q174 483 176 462T178 411Q198 436 225 456T286 489T354 502L322 411Q272 411 236 387T170 321L127 0H44L90 358Q92 370 92 381T93 405Q93 422 90 447T76 491L168 502Z" />
<glyph unicode="s" horiz-adv-x="376" d="M327 410Q305 426 283 433T235 441Q212 441 190 432T155 406T141 364Q141 339 160 322T207 290T264 255T312 209T331 139Q331 89 306 55T241 4T153 -13Q112 -13 76 -2T6 28L49 89Q71 71 98 60T150 49Q174 49 196 58T233
85T248 130Q248 159 229 177T182 211T126 244T78 286T59 349Q59 403 85 437T153 487T240 503Q273 503 304 495T361 470L327 410Z" />
<glyph unicode="t" horiz-adv-x="287" d="M226 631Q215 593 206 561T189 490H302L282 427H180L139 110Q139 110 138 102T137 89Q137 70 145 60T176 49Q187 49 203 52T241 60L248 7Q248 7 233 2T196 -8T152 -13Q128 -13 107 -7T71 20T57 81Q57 87 58 95T59 109T60
116L101 427H32L41 490Q68 490 89 502T128 545T164 631H226Z" />
<glyph unicode="u" horiz-adv-x="510" d="M168 490L125 171Q124 160 123 150T122 130Q122 87 139 68T189 49Q205 49 223 55T260 77T295 118T325 184T346 279L368 432V490H456L405 121Q404 114 404 107T403 95Q403 71 411 62T431 53Q446 53 459 58T472 63L483 11Q483
11 471 6T441 -6T408 -12Q391 -12 373 -4T342 23T329 71H325Q320 63 309 49T280 21T235 -3T168 -13Q101 -13 71 23T40 119Q40 138 43 159L81 433V490H168Z" />
<glyph unicode="v" horiz-adv-x="418" d="M126 490Q136 442 146 394T165 297T184 201T200 104Q219 152 240 200T284 297T330 393T376 490H451L216 -5H143L42 490H126Z" />
<glyph unicode="w" horiz-adv-x="610" d="M124 490Q130 448 136 406T149 321T160 235T172 146Q190 191 208 234T245 321T282 406T319 490H377Q386 435 394 379T410 265T426 146Q444 192 462 236T499 322T535 406T572 490H643L428 -5H370Q364 37 358 79T346 165T334
252T322 342Q304 297 285 253T248 166T210 80T173 -5H115L42 490H124Z" />
<glyph unicode="x" horiz-adv-x="388" d="M131 490L370 0H279L42 490H131ZM331 490H421L54 0H-36L331 490Z" />
<glyph unicode="y" horiz-adv-x="409" d="M-31 -164Q1 -162 26 -152T73 -121T112 -69T149 3L45 490H130Q139 444 148 397T166 301T184 205T201 108Q222 158 244 206T288 302T332 397T375 490H451L203 -51Q180 -102 146 -142T65 -205T-40 -230L-31 -164Z" />
<glyph unicode="z" horiz-adv-x="433" d="M96 490H423V443L126 63H382L372 0H18V48L313 427H87L96 490Z" />
<glyph unicode="{" horiz-adv-x="350" d="M214 -135Q135 -135 109 -92T92 28L115 192Q118 213 115 233T100 265T63 278L69 323Q98 323 113 338T136 375T147 420L168 573Q179 649 218 692T339 736H361L355 689Q318 689 298 682T268 656T253 601L229 431Q225 404
217 378T192 331T145 300Q172 290 183 270T196 223T193 170L168 -8Q164 -41 170 -58T194 -82T245 -88L239 -135H214Z" />
<glyph unicode="|" horiz-adv-x="236" d="M144 742H212L92 -109H24L144 742Z" />
<glyph unicode="}" horiz-adv-x="321" d="M145 736Q224 736 251 693T267 573L244 409Q240 378 249 351T296 323L290 278Q262 278 246 263T223 226T212 181L191 28Q181 -48 141 -91T20 -135H-2L4 -88Q41 -88 61 -81T91 -55T106 0L130 170Q134 197 142 223T167 270T214
301Q187 311 176 331T163 378T166 431L191 609Q196 643 190 660T165 683T114 689L120 736H145Z" />
<glyph unicode="~" horiz-adv-x="559" d="M518 297Q502 276 477 255T425 219T370 204Q342 204 318 214T272 237T226 261T175 271Q157 271 140 261T110 235T86 203L40 247Q55 272 78 294T129 329T185 343Q216 343 243 333T294 310T339 287T381 277Q409 277 434
298T476 343L518 297Z" />
<glyph unicode="&#xa0;" horiz-adv-x="234" />
<glyph unicode="&#xa1;" horiz-adv-x="245" d="M110 -232H-7L94 279H153L110 -232ZM79 434Q79 464 102 486T155 509Q180 509 196 493T213 452Q213 432 203 415T175 387T137 377Q112 377 96 393T79 434Z" />
<glyph unicode="&#xa2;" d="M317 485Q351 485 384 474T449 439L400 381Q378 401 355 411T308 421Q260 421 227 390T176 309T158 207Q158 143 187 111T266 78Q317 78 378 108L401 56Q360 33 322 22T242 11Q165 11 119 62T72 202Q72 260 90 311T142 401T220 462T317
485ZM246 33L210 -118H138L200 33H246ZM296 468L330 612H404L344 468H296Z" />
<glyph unicode="&#xa3;" horiz-adv-x="581" d="M31 69H124L185 504Q194 566 225 609T304 674T412 697Q466 697 508 671T573 599L492 557Q482 586 459 607T401 628Q366 628 340 611T299 567T279 506L218 69H510L500 0H21L31 69ZM80 298L99 360H423L404 298H80Z" />
<glyph unicode="&#xa4;" horiz-adv-x="536" d="M296 458Q361 458 405 417L468 471L510 422L444 365Q453 346 458 325T463 280Q463 239 449 204T412 138L462 82L406 34L360 87Q333 67 302 56T238 45Q205 45 177 56T127 87L66 34L24 83L88 139Q71 176 71 222Q71
261 85 299T121 365L72 422L128 471L174 416Q201 436 232 447T296 458ZM287 397Q249 397 217 374T164 312T144 226Q144 172 173 139T246 106Q281 106 314 127T369 187T391 277Q391 328 363 362T287 397Z" />
<glyph unicode="&#xa5;" horiz-adv-x="604" d="M214 697L343 414L540 697H627L366 329L320 0H225L271 329L106 697H214ZM98 389H562L543 327H79L98 389ZM79 253H543L524 191H60L79 253Z" />
<glyph unicode="&#xa6;" horiz-adv-x="238" d="M144 742H212L163 393H95L144 742ZM73 233H141L92 -115H24L73 233Z" />
<glyph unicode="&#xa7;" horiz-adv-x="454" d="M387 773Q401 773 418 770T447 762T460 758L435 692Q431 694 417 699T387 705Q381 705 371 704T349 697T327 681T310 649T303 597Q303 570 305 526T312 430T322 323T331 219T338 133T341 79Q341 55 336 27T316 -29T278
-75T214 -101Q206 -150 181 -179T123 -220T56 -233Q28 -233 8 -226T-15 -218L9 -157Q12 -157 21 -160T40 -166T56 -169Q80 -169 99 -159T129 -124T140 -60Q140 -39 138 0T131 89T122 194T113 300T106 392T103 458Q103 514 117 553T160 614T229 641Q235 685 258
714T314 758T387 773ZM227 569Q202 559 191 532T180 465Q180 446 183 404T192 306T202 189T211 71T217 -29Q230 -23 240 -11T256 21T262 73Q262 100 259 146T252 248T242 363T233 475T227 569Z" />
<glyph unicode="&#xa8;" horiz-adv-x="276" d="M171 665Q171 639 152 620T106 600Q85 600 72 614T58 649Q58 675 77 694T122 714Q144 714 157 700T171 665ZM334 665Q334 639 315 620T269 600Q248 600 235 614T221 649Q221 675 240 694T285 714Q307 714 320 700T334 665Z" />
<glyph unicode="&#xa9;" horiz-adv-x="639" d="M592 250Q592 194 571 145T512 59T425 0T320 -22Q264 -22 215 -1T128 57T69 144T48 250Q48 306 69 355T127 442T214 501T320 522Q376 522 425 501T511 442T570 355T592 250ZM553 250Q553 314 522 367T437 451T320
483Q256 483 203 452T119 367T87 250Q87 186 118 133T203 49T320 17Q384 17 437 48T521 133T553 250ZM436 119Q407 103 385 96T328 88Q281 88 248 110T198 169T181 251Q181 322 222 368T336 414Q361 414 385 405T431 381L401 343Q383 358 368 364T328 370Q299 370
280 352T251 308T242 256Q242 230 251 202T280 154T331 134Q356 134 373 141T410 162L436 119Z" />
<glyph unicode="&#xaa;" horiz-adv-x="363" d="M243 721Q261 721 281 715T314 691L331 716H364Q350 640 341 591T328 514T321 473T319 455Q319 443 323 436T340 429Q347 429 353 430T366 434L373 401Q363 396 350 391T325 386Q303 386 289 398T271 433H267Q250
408 226 397T174 385Q139 385 117 402T83 447T72 509Q72 545 83 582T117 651T171 701T243 721ZM244 676Q209 676 184 650T145 587T132 512Q132 478 144 454T184 429Q215 429 235 453T268 517T288 598L297 651Q287 664 273 670T244 676ZM85 277L94 331H322L314 277H85Z"
/>
<glyph unicode="&#xab;" horiz-adv-x="454" d="M231 181L172 172L45 332L212 493L272 482L135 331L231 181ZM380 181L320 172L193 332L360 493L422 482L283 331L380 181Z" />
<glyph unicode="&#xac;" horiz-adv-x="638" d="M513 279H81L90 339H583L547 89H486L513 279Z" />
<glyph unicode="&#xad;" horiz-adv-x="324" d="M34 222L45 293H286L275 222H34Z" />
<glyph unicode="&#xae;" horiz-adv-x="471" d="M485 603Q485 548 458 503T386 432T286 405Q231 405 186 431T115 503T88 603Q88 658 114 703T186 774T286 801Q341 801 386 775T458 703T485 603ZM452 603Q452 649 430 686T370 745T286 768Q241 768 204 746T144
686T121 603Q121 558 143 521T203 461T286 438Q332 438 369 460T429 520T452 603ZM205 717H293Q325 717 348 704T371 653Q371 632 358 618T325 596L398 492H338L273 588H255V492H205V717ZM255 680V625H279Q298 625 309 631T321 655Q321 668 311 674T286 680H255Z"
/>
<glyph unicode="&#xaf;" horiz-adv-x="305" d="M63 689H367L359 625H55L63 689Z" />
<glyph unicode="&#xb0;" horiz-adv-x="391" d="M398 614Q398 567 374 528T310 466T224 443Q167 443 130 480T92 572Q92 618 116 657T180 719T265 743Q323 743 360 706T398 614ZM334 606Q334 639 313 661T258 683Q232 683 209 669T171 632T156 580Q156 546 177
525T231 503Q257 503 280 517T319 554T334 606Z" />
<glyph unicode="&#xb1;" horiz-adv-x="632" d="M329 80H259L283 251H69L79 320H293L316 490H386L363 320H578L568 251H353L329 80ZM43 68H542L533 0H34L43 68Z" />
<glyph unicode="&#xb2;" horiz-adv-x="455" d="M97 475Q106 482 130 500T186 546T252 606T315 674T363 743T381 807Q381 835 364 852T314 870Q290 870 268 862T227 844T199 825T188 817L163 864Q163 864 175 873T211 896T266 918T337 928Q383 928 410 913T448
873T460 822Q460 784 443 746T398 673T337 605T270 547T208 502H430L403 434H97V475Z" />
<glyph unicode="&#xb3;" horiz-adv-x="455" d="M106 474Q228 480 295 520T363 618Q363 645 348 658T310 675T264 679Q251 679 241 678T229 677V724Q250 728 274 736T322 756T359 786T374 830Q374 850 358 860T313 870Q283 870 247 855T187 820L162 866Q198 893
247 910T339 928Q366 928 391 921T432 898T449 852Q449 819 433 795T392 754T344 728Q385 723 412 698T440 630Q440 608 431 582T401 529T342 479T247 441T109 423L106 474Z" />
<glyph unicode="&#xb4;" horiz-adv-x="282" d="M197 733H319L157 581H79L197 733Z" />
<glyph unicode="&#xb5;" horiz-adv-x="584" d="M224 490Q211 391 202 329T189 231T182 178T180 154T179 141Q179 109 192 85T244 61Q267 61 289 69T331 90T364 112T382 127L423 433L419 490H511Q506 455 500 412T488 322T476 233T466 154T458 96T455 70Q455 63
458 61T466 59Q476 59 487 62T507 68T516 71L526 20Q526 20 516 15T491 4T459 -7T426 -12Q400 -12 388 7T376 58Q362 45 337 29T281 0T222 -13Q191 -13 161 1L135 -186H53L136 433L132 490H224Z" />
<glyph unicode="&#xb6;" horiz-adv-x="500" d="M103 -110Q108 -111 113 -111T122 -112Q150 -112 167 -93T188 -47L241 332Q194 332 157 352T98 409T77 492Q77 562 110 612T200 690T330 718H522L514 664H458L366 10Q362 -21 344 -45T298 -85T241 -100Q237 -100
233 -100T223 -99Q208 -127 182 -143T125 -160Q107 -160 87 -154L103 -110ZM343 664L243 -47Q272 -47 290 -30T312 10L404 664H343Z" />
<glyph unicode="&#xb7;" horiz-adv-x="285" d="M215 265Q215 234 192 212T139 189Q114 189 98 205T81 247Q81 277 104 299T156 322Q182 322 198 306T215 265Z" />
<glyph unicode="&#xb8;" horiz-adv-x="200" d="M115 -117Q115 -147 96 -168T45 -202T-22 -218L-30 -176Q-15 -174 2 -168T31 -150T43 -119Q43 -99 28 -88T-4 -71L42 8H87L57 -46Q65 -48 79 -56T104 -78T115 -117Z" />
<glyph unicode="&#xb9;" horiz-adv-x="455" d="M123 493H241L287 838L167 803L157 852L327 918H374L317 493H412L404 434H115L123 493Z" />
<glyph unicode="&#xba;" horiz-adv-x="355" d="M364 582Q364 547 353 512T321 447T268 401T197 383Q156 383 129 402T88 453T75 522Q75 557 86 592T119 656T172 704T242 722Q284 722 311 703T351 652T364 582ZM303 579Q303 601 297 623T277 659T236 674Q211 674
192 660T161 624T142 576T136 529Q136 507 142 485T163 447T203 431Q229 431 248 445T279 483T297 531T303 579ZM69 277L77 331H306L297 277H69Z" />
<glyph unicode="&#xbb;" horiz-adv-x="454" d="M45 183L184 334L86 485L147 493L274 333L106 172L45 183ZM194 183L332 334L235 485L295 493L422 333L254 172L194 183Z" />
<glyph unicode="&#xbc;" horiz-adv-x="1151" d="M798 730H864L385 -7H321L798 730ZM96 303H214L260 648L140 613L130 662L300 728H347L290 303H385L377 244H88L96 303ZM940 110H711L718 150L999 483H1079L1030 169H1105L1078 110H1020L1003 0H923L940 110ZM987
387L806 169H950L987 387Z" />
<glyph unicode="&#xbd;" horiz-adv-x="1151" d="M798 730H864L385 -7H321L798 730ZM96 303H214L260 648L140 613L130 662L300 728H347L290 303H385L377 244H88L96 303ZM732 41Q741 48 765 66T821 112T887 172T950 240T998 309T1016 373Q1016 401 999 418T949 436Q925
436 903 428T862 410T834 391T823 383L798 430Q798 430 810 439T846 462T901 484T972 494Q1018 494 1045 479T1083 439T1095 388Q1095 350 1078 312T1033 239T972 171T905 113T843 68H1065L1038 0H732V41Z" />
<glyph unicode="&#xbe;" horiz-adv-x="1151" d="M798 730H864L385 -7H321L798 730ZM79 284Q201 290 268 330T336 428Q336 455 321 468T283 485T237 489Q224 489 214 488T202 487V534Q223 538 247 546T295 566T332 596T347 640Q347 660 331 670T286 680Q256 680
220 665T160 630L135 676Q171 703 220 720T312 738Q339 738 364 731T405 708T422 662Q422 629 406 605T365 564T317 538Q358 533 385 508T413 440Q413 418 404 392T374 339T315 289T220 251T82 233L79 284ZM940 110H711L718 150L999 483H1079L1030 169H1105L1078
110H1020L1003 0H923L940 110ZM987 387L806 169H950L987 387Z" />
<glyph unicode="&#xbf;" horiz-adv-x="431" d="M166 -234Q126 -234 92 -219T37 -174T16 -99Q16 -49 35 -15T83 42T142 81Q183 103 211 123T240 177Q240 187 235 197T217 215T181 222L204 284Q243 284 268 269T305 232T318 186Q318 144 298 116T248 67T188 30Q151
9 129 -15T106 -84Q106 -126 128 -144T183 -162Q230 -162 273 -130L290 -197Q261 -216 229 -225T166 -234ZM269 371Q244 371 228 387T211 427Q211 457 235 480T288 503Q313 503 329 487T345 446Q345 415 322 393T269 371Z" />
<glyph unicode="&#xc0;" horiz-adv-x="605" d="M419 724L561 0H464L417 249H190L75 0H-6L332 724H419ZM351 602L221 316H404L351 602ZM346 905L424 774H346L224 905H346Z" />
<glyph unicode="&#xc1;" horiz-adv-x="605" d="M419 724L561 0H464L417 249H190L75 0H-6L332 724H419ZM351 602L221 316H404L351 602ZM452 905H574L416 774H338L452 905Z" />
<glyph unicode="&#xc2;" horiz-adv-x="605" d="M419 724L561 0H464L417 249H190L75 0H-6L332 724H419ZM351 602L221 316H404L351 602ZM389 834L305 773H238L358 907H441L529 772H460L389 834Z" />
<glyph unicode="&#xc3;" horiz-adv-x="605" d="M419 724L561 0H464L417 249H190L75 0H-6L332 724H419ZM351 602L221 316H404L351 602ZM552 882Q547 860 534 837T500 799T453 783Q425 783 402 793T358 812T310 822Q297 822 288 814T272 795H223Q230 820 245 842T282
880T331 895Q358 895 380 886T424 866T465 856Q477 856 488 863T505 882H552Z" />
<glyph unicode="&#xc4;" horiz-adv-x="605" d="M419 724L561 0H464L417 249H190L75 0H-6L332 724H419ZM351 602L221 316H404L351 602ZM364 846Q364 820 345 801T299 781Q278 781 265 795T251 830Q251 856 270 875T315 895Q337 895 350 881T364 846ZM527 846Q527
820 508 801T462 781Q441 781 428 795T414 830Q414 856 433 875T478 895Q500 895 513 881T527 846Z" />
<glyph unicode="&#xc5;" horiz-adv-x="605" d="M419 724L561 0H464L417 249H190L75 0H-6L332 724H419ZM351 602L221 316H404L351 602ZM409 989Q447 989 472 964T497 901Q497 871 482 846T441 806T385 790Q348 790 323 815T297 877Q297 907 312 932T354 973T409
989ZM402 937Q380 937 364 922T348 884Q348 866 361 854T392 841Q413 841 429 856T446 894Q446 911 433 924T402 937Z" />
<glyph unicode="&#xc6;" horiz-adv-x="820" d="M417 247H218L57 0H-26L400 660L395 724H864L854 655H561L529 406H770L760 338H518L483 69H778L768 0H384L417 247ZM264 318H427L469 637L264 318Z" />
<glyph unicode="&#xc7;" horiz-adv-x="585" d="M317 -10Q248 -10 197 15T112 84T62 184T45 301Q45 378 69 454T142 594T261 695T423 734Q457 734 493 727T562 703T620 657L564 599Q534 634 494 649T413 665Q349 665 299 633T213 549T160 433T142 307Q142 243 162
188T225 99T333 65Q378 65 424 77T516 114L541 59Q510 37 473 22T397 -2T317 -10ZM351 -117Q351 -147 332 -168T281 -202T214 -218L206 -176Q221 -174 238 -168T267 -150T279 -119Q279 -99 264 -88T232 -71L278 8H323L293 -46Q301 -48 315 -56T340 -78T351 -117Z"
/>
<glyph unicode="&#xc8;" horiz-adv-x="500" d="M133 724H544L534 655H221L189 405H431L421 337H179L143 69H456L447 0H45L133 659V724ZM314 905L392 774H314L192 905H314Z" />
<glyph unicode="&#xc9;" horiz-adv-x="500" d="M133 724H544L534 655H221L189 405H431L421 337H179L143 69H456L447 0H45L133 659V724ZM420 905H542L384 774H306L420 905Z" />
<glyph unicode="&#xca;" horiz-adv-x="500" d="M133 724H544L534 655H221L189 405H431L421 337H179L143 69H456L447 0H45L133 659V724ZM357 834L273 773H206L326 907H409L497 772H428L357 834Z" />
<glyph unicode="&#xcb;" horiz-adv-x="500" d="M133 724H544L534 655H221L189 405H431L421 337H179L143 69H456L447 0H45L133 659V724ZM332 846Q332 820 313 801T267 781Q246 781 233 795T219 830Q219 856 238 875T283 895Q305 895 318 881T332 846ZM495 846Q495
820 476 801T430 781Q409 781 396 795T382 830Q382 856 401 875T446 895Q468 895 481 881T495 846Z" />
<glyph unicode="&#xcc;" horiz-adv-x="251" d="M136 724H235L137 0H47L136 659V724ZM413 905L491 774H413L291 905H413Z" />
<glyph unicode="&#xcd;" horiz-adv-x="251" d="M136 724H235L137 0H47L136 659V724ZM263 905H385L227 774H149L263 905Z" />
<glyph unicode="&#xce;" horiz-adv-x="251" d="M136 724H235L137 0H47L136 659V724ZM456 834L372 773H305L425 907H508L596 772H527L456 834Z" />
<glyph unicode="&#xcf;" horiz-adv-x="251" d="M136 724H235L137 0H47L136 659V724ZM431 846Q431 820 412 801T366 781Q345 781 332 795T318 830Q318 856 337 875T382 895Q404 895 417 881T431 846ZM594 846Q594 820 575 801T529 781Q508 781 495 795T481 830Q481
856 500 875T545 895Q567 895 580 881T594 846Z" />
<glyph unicode="&#xd0;" horiz-adv-x="679" d="M639 434Q639 353 617 276T551 136T437 37T275 0H45L134 659V724H378Q446 724 495 702T577 640T624 547T639 434ZM545 430Q545 473 536 513T507 585T453 636T369 655H223L145 69H281Q337 69 380 91T455 152T506 237T535
334T545 430ZM300 393H621L611 328H290L300 393Z" />
<glyph unicode="&#xd1;" horiz-adv-x="674" d="M248 724L477 252Q485 235 493 217T510 173Q512 197 514 215T519 249L584 724H657L559 -5H502L231 550Q224 566 217 582T201 622Q199 598 197 580T192 545L119 0H45L134 659V724H248ZM575 882Q570 860 557 837T523
799T476 783Q448 783 425 793T381 812T333 822Q320 822 311 814T295 795H246Q253 820 268 842T305 880T354 895Q381 895 403 886T447 866T488 856Q500 856 511 863T528 882H575Z" />
<glyph unicode="&#xd2;" horiz-adv-x="708" d="M304 -10Q236 -10 187 13T107 78T60 174T45 289Q45 369 67 448T135 591T248 695T407 734Q499 734 556 695T641 588T668 438Q668 355 645 275T577 131T463 28T304 -10ZM317 59Q373 59 415 82T488 145T537 233T565
334T574 433Q574 492 558 545T504 631T398 665Q342 665 300 642T227 579T177 491T149 390T140 291Q140 233 156 180T211 93T317 59ZM383 905L461 774H383L261 905H383Z" />
<glyph unicode="&#xd3;" horiz-adv-x="708" d="M304 -10Q236 -10 187 13T107 78T60 174T45 289Q45 369 67 448T135 591T248 695T407 734Q499 734 556 695T641 588T668 438Q668 355 645 275T577 131T463 28T304 -10ZM317 59Q373 59 415 82T488 145T537 233T565
334T574 433Q574 492 558 545T504 631T398 665Q342 665 300 642T227 579T177 491T149 390T140 291Q140 233 156 180T211 93T317 59ZM489 905H611L453 774H375L489 905Z" />
<glyph unicode="&#xd4;" horiz-adv-x="708" d="M304 -10Q236 -10 187 13T107 78T60 174T45 289Q45 369 67 448T135 591T248 695T407 734Q499 734 556 695T641 588T668 438Q668 355 645 275T577 131T463 28T304 -10ZM317 59Q373 59 415 82T488 145T537 233T565
334T574 433Q574 492 558 545T504 631T398 665Q342 665 300 642T227 579T177 491T149 390T140 291Q140 233 156 180T211 93T317 59ZM426 834L342 773H275L395 907H478L566 772H497L426 834Z" />
<glyph unicode="&#xd5;" horiz-adv-x="708" d="M304 -10Q236 -10 187 13T107 78T60 174T45 289Q45 369 67 448T135 591T248 695T407 734Q499 734 556 695T641 588T668 438Q668 355 645 275T577 131T463 28T304 -10ZM317 59Q373 59 415 82T488 145T537 233T565
334T574 433Q574 492 558 545T504 631T398 665Q342 665 300 642T227 579T177 491T149 390T140 291Q140 233 156 180T211 93T317 59ZM589 882Q584 860 571 837T537 799T490 783Q462 783 439 793T395 812T347 822Q334 822 325 814T309 795H260Q267 820 282 842T319
880T368 895Q395 895 417 886T461 866T502 856Q514 856 525 863T542 882H589Z" />
<glyph unicode="&#xd6;" horiz-adv-x="708" d="M304 -10Q236 -10 187 13T107 78T60 174T45 289Q45 369 67 448T135 591T248 695T407 734Q499 734 556 695T641 588T668 438Q668 355 645 275T577 131T463 28T304 -10ZM317 59Q373 59 415 82T488 145T537 233T565
334T574 433Q574 492 558 545T504 631T398 665Q342 665 300 642T227 579T177 491T149 390T140 291Q140 233 156 180T211 93T317 59ZM401 846Q401 820 382 801T336 781Q315 781 302 795T288 830Q288 856 307 875T352 895Q374 895 387 881T401 846ZM564 846Q564 820
545 801T499 781Q478 781 465 795T451 830Q451 856 470 875T515 895Q537 895 550 881T564 846Z" />
<glyph unicode="&#xd7;" horiz-adv-x="534" d="M261 202L87 50L50 94L224 246L92 398L143 442L273 290L447 442L484 398L310 246L442 94L391 50L261 202Z" />
<glyph unicode="&#xd8;" horiz-adv-x="708" d="M304 -10Q236 -10 187 13T107 78T60 174T45 289Q45 369 67 448T135 591T248 695T407 734Q499 734 556 695T641 588T668 438Q668 355 645 275T577 131T463 28T304 -10ZM317 59Q373 59 415 82T488 145T537 233T565
334T574 433Q574 492 558 545T504 631T398 665Q342 665 300 642T227 579T177 491T149 390T140 291Q140 233 156 180T211 93T317 59ZM321 -55L276 -17L902 775L950 738L321 -55Z" />
<glyph unicode="&#xd9;" horiz-adv-x="638" d="M206 724L141 243Q140 231 139 221T138 200Q138 160 152 128T197 78T280 59Q342 59 385 84T453 153T486 258L549 724H623L559 257Q549 183 517 123T424 26T268 -10Q206 -10 164 6T95 49T58 113T46 192Q46 204 47
217T50 244L106 660V724H206ZM351 905L429 774H351L229 905H351Z" />
<glyph unicode="&#xda;" horiz-adv-x="638" d="M206 724L141 243Q140 231 139 221T138 200Q138 160 152 128T197 78T280 59Q342 59 385 84T453 153T486 258L549 724H623L559 257Q549 183 517 123T424 26T268 -10Q206 -10 164 6T95 49T58 113T46 192Q46 204 47
217T50 244L106 660V724H206ZM457 905H579L421 774H343L457 905Z" />
<glyph unicode="&#xdb;" horiz-adv-x="638" d="M206 724L141 243Q140 231 139 221T138 200Q138 160 152 128T197 78T280 59Q342 59 385 84T453 153T486 258L549 724H623L559 257Q549 183 517 123T424 26T268 -10Q206 -10 164 6T95 49T58 113T46 192Q46 204 47
217T50 244L106 660V724H206ZM394 834L310 773H243L363 907H446L534 772H465L394 834Z" />
<glyph unicode="&#xdc;" horiz-adv-x="638" d="M206 724L141 243Q140 231 139 221T138 200Q138 160 152 128T197 78T280 59Q342 59 385 84T453 153T486 258L549 724H623L559 257Q549 183 517 123T424 26T268 -10Q206 -10 164 6T95 49T58 113T46 192Q46 204 47
217T50 244L106 660V724H206ZM369 846Q369 820 350 801T304 781Q283 781 270 795T256 830Q256 856 275 875T320 895Q342 895 355 881T369 846ZM532 846Q532 820 513 801T467 781Q446 781 433 795T419 830Q419 856 438 875T483 895Q505 895 518 881T532 846Z" />
<glyph unicode="&#xdd;" horiz-adv-x="477" d="M145 724L267 444L454 724H538L290 358L242 0H151L199 359L42 724H145ZM376 905H498L340 774H262L376 905Z" />
<glyph unicode="&#xde;" horiz-adv-x="539" d="M236 724L221 610H317Q376 610 424 593T500 536T529 429Q529 371 510 324T456 242T372 190T264 172H160L137 0H46L135 659V724H236ZM170 239H270Q322 239 359 263T415 329T435 418Q435 478 402 509T309 541H210L170 239Z" />
<glyph unicode="&#xdf;" horiz-adv-x="541" d="M-155 -198L-115 -141Q-101 -150 -92 -155T-73 -163T-45 -166Q-12 -166 12 -140T44 -52L109 427H37L45 490Q66 490 81 492T107 503T125 534Q144 592 169 637T235 707T342 733Q383 733 415 718T465 675T484 610Q484
567 468 536T429 482T381 441T341 404T325 364Q325 334 341 315T382 281T431 249T472 206T489 139Q489 90 466 56T405 5T321 -13Q287 -13 251 -3T180 28L223 89Q246 69 271 60T321 50Q356 50 381 70T406 130Q406 159 390 177T349 210T301 241T260 283T243 349Q243
384 259 409T298 456T345 498T384 544T400 603Q400 632 384 649T335 666Q301 666 277 650T236 607T211 550T197 488L122 -61Q110 -148 68 -189T-43 -230Q-70 -230 -90 -226T-125 -214T-155 -198Z" />
<glyph unicode="&#xe0;" horiz-adv-x="509" d="M418 495H462Q447 396 437 329T420 219T410 152T405 115T404 94Q404 76 411 65T437 54Q447 54 457 56T477 62L488 12Q472 3 452 -4T413 -11Q377 -11 356 13T334 74H330Q307 33 268 10T187 -13Q133 -13 100 15T51
90T35 193Q35 249 50 304T97 404T175 476T286 503Q317 503 348 491T407 448V389Q376 416 348 428T288 441Q242 441 210 419T157 361T127 281T118 194Q118 136 138 94T203 51Q236 51 261 72T306 130T337 212T356 307L371 419L418 495ZM261 733L335 581H257L139 733H261Z"
/>
<glyph unicode="&#xe1;" horiz-adv-x="509" d="M418 495H462Q447 396 437 329T420 219T410 152T405 115T404 94Q404 76 411 65T437 54Q447 54 457 56T477 62L488 12Q472 3 452 -4T413 -11Q377 -11 356 13T334 74H330Q307 33 268 10T187 -13Q133 -13 100 15T51
90T35 193Q35 249 50 304T97 404T175 476T286 503Q317 503 348 491T407 448V389Q376 416 348 428T288 441Q242 441 210 419T157 361T127 281T118 194Q118 136 138 94T203 51Q236 51 261 72T306 130T337 212T356 307L371 419L418 495ZM369 733H491L329 581H251L369
733Z" />
<glyph unicode="&#xe2;" horiz-adv-x="509" d="M418 495H462Q447 396 437 329T420 219T410 152T405 115T404 94Q404 76 411 65T437 54Q447 54 457 56T477 62L488 12Q472 3 452 -4T413 -11Q377 -11 356 13T334 74H330Q307 33 268 10T187 -13Q133 -13 100 15T51
90T35 193Q35 249 50 304T97 404T175 476T286 503Q317 503 348 491T407 448V389Q376 416 348 428T288 441Q242 441 210 419T157 361T127 281T118 194Q118 136 138 94T203 51Q236 51 261 72T306 130T337 212T356 307L371 419L418 495ZM305 661L217 580H150L274 734H357L441
579H372L305 661Z" />
<glyph unicode="&#xe3;" horiz-adv-x="509" d="M418 495H462Q447 396 437 329T420 219T410 152T405 115T404 94Q404 76 411 65T437 54Q447 54 457 56T477 62L488 12Q472 3 452 -4T413 -11Q377 -11 356 13T334 74H330Q307 33 268 10T187 -13Q133 -13 100 15T51
90T35 193Q35 249 50 304T97 404T175 476T286 503Q317 503 348 491T407 448V389Q376 416 348 428T288 441Q242 441 210 419T157 361T127 281T118 194Q118 136 138 94T203 51Q236 51 261 72T306 130T337 212T356 307L371 419L418 495ZM467 701Q462 679 449 656T415
618T368 602Q340 602 317 612T273 631T225 641Q212 641 203 633T187 614H138Q145 639 160 661T197 699T246 714Q273 714 295 705T339 685T380 675Q392 675 403 682T420 701H467Z" />
<glyph unicode="&#xe4;" horiz-adv-x="509" d="M418 495H462Q447 396 437 329T420 219T410 152T405 115T404 94Q404 76 411 65T437 54Q447 54 457 56T477 62L488 12Q472 3 452 -4T413 -11Q377 -11 356 13T334 74H330Q307 33 268 10T187 -13Q133 -13 100 15T51
90T35 193Q35 249 50 304T97 404T175 476T286 503Q317 503 348 491T407 448V389Q376 416 348 428T288 441Q242 441 210 419T157 361T127 281T118 194Q118 136 138 94T203 51Q236 51 261 72T306 130T337 212T356 307L371 419L418 495ZM279 665Q279 639 260 620T214
600Q193 600 180 614T166 649Q166 675 185 694T230 714Q252 714 265 700T279 665ZM442 665Q442 639 423 620T377 600Q356 600 343 614T329 649Q329 675 348 694T393 714Q415 714 428 700T442 665Z" />
<glyph unicode="&#xe5;" horiz-adv-x="509" d="M418 495H462Q447 396 437 329T420 219T410 152T405 115T404 94Q404 76 411 65T437 54Q447 54 457 56T477 62L488 12Q472 3 452 -4T413 -11Q377 -11 356 13T334 74H330Q307 33 268 10T187 -13Q133 -13 100 15T51
90T35 193Q35 249 50 304T97 404T175 476T286 503Q317 503 348 491T407 448V389Q376 416 348 428T288 441Q242 441 210 419T157 361T127 281T118 194Q118 136 138 94T203 51Q236 51 261 72T306 130T337 212T356 307L371 419L418 495ZM317 758Q355 758 380 733T405
670Q405 640 390 615T349 575T293 559Q256 559 231 584T205 646Q205 676 220 701T262 742T317 758ZM310 706Q288 706 272 691T256 653Q256 635 269 623T300 610Q321 610 337 625T354 663Q354 680 341 693T310 706Z" />
<glyph unicode="&#xe6;" horiz-adv-x="763" d="M383 165Q364 116 339 76T277 11T187 -13Q133 -13 100 15T51 90T35 193Q35 249 50 304T97 404T175 476T286 503Q307 503 332 499T386 478T439 427L407 389Q376 416 348 428T288 441Q242 441 210 419T157 361T127
281T118 194Q118 136 138 94T203 51Q244 51 273 82T321 163T351 271L383 165ZM548 57Q586 57 621 69T687 102L716 43Q698 30 677 20T634 3T588 -9T543 -13Q473 -13 429 17T365 97T345 207Q345 260 361 312T409 408T490 477T601 503Q636 503 667 493T717 459T737
397Q737 350 713 313T645 251T543 213T416 202V261Q445 257 477 261T541 275T597 302T638 341T653 390Q653 416 635 428T591 441Q551 441 521 421T470 368T439 294T428 213Q428 170 439 135T477 78T548 57Z" />
<glyph unicode="&#xe7;" horiz-adv-x="420" d="M379 392Q355 415 331 425T283 436Q241 436 210 417T159 365T128 293T118 214Q118 131 148 93T233 54Q259 54 290 62T358 86L382 36Q342 11 300 -1T217 -13Q164 -13 123 11T59 84T35 204Q35 257 51 310T98 406T177
476T289 503Q324 503 359 492T429 452L379 392ZM261 -117Q261 -147 242 -168T191 -202T124 -218L116 -176Q131 -174 148 -168T177 -150T189 -119Q189 -99 174 -88T142 -71L188 8H233L203 -46Q211 -48 225 -56T250 -78T261 -117Z" />
<glyph unicode="&#xe8;" horiz-adv-x="454" d="M292 503Q327 503 358 493T408 459T428 397Q428 350 404 313T336 251T234 213T107 202V261Q147 257 188 264T265 289T322 333T344 390Q344 416 326 428T282 441Q242 441 212 421T161 368T130 294T119 213Q119 132
154 95T247 57Q276 57 310 66T381 92L407 43Q389 30 368 20T325 3T279 -9T234 -13Q164 -13 120 17T56 97T36 207Q36 260 52 312T100 408T181 477T292 503ZM268 733L342 581H264L146 733H268Z" />
<glyph unicode="&#xe9;" horiz-adv-x="454" d="M292 503Q327 503 358 493T408 459T428 397Q428 350 404 313T336 251T234 213T107 202V261Q147 257 188 264T265 289T322 333T344 390Q344 416 326 428T282 441Q242 441 212 421T161 368T130 294T119 213Q119 132
154 95T247 57Q276 57 310 66T381 92L407 43Q389 30 368 20T325 3T279 -9T234 -13Q164 -13 120 17T56 97T36 207Q36 260 52 312T100 408T181 477T292 503ZM376 733H498L336 581H258L376 733Z" />
<glyph unicode="&#xea;" horiz-adv-x="454" d="M292 503Q327 503 358 493T408 459T428 397Q428 350 404 313T336 251T234 213T107 202V261Q147 257 188 264T265 289T322 333T344 390Q344 416 326 428T282 441Q242 441 212 421T161 368T130 294T119 213Q119 132
154 95T247 57Q276 57 310 66T381 92L407 43Q389 30 368 20T325 3T279 -9T234 -13Q164 -13 120 17T56 97T36 207Q36 260 52 312T100 408T181 477T292 503ZM312 661L224 580H157L281 734H364L448 579H379L312 661Z" />
<glyph unicode="&#xeb;" horiz-adv-x="454" d="M292 503Q327 503 358 493T408 459T428 397Q428 350 404 313T336 251T234 213T107 202V261Q147 257 188 264T265 289T322 333T344 390Q344 416 326 428T282 441Q242 441 212 421T161 368T130 294T119 213Q119 132
154 95T247 57Q276 57 310 66T381 92L407 43Q389 30 368 20T325 3T279 -9T234 -13Q164 -13 120 17T56 97T36 207Q36 260 52 312T100 408T181 477T292 503ZM286 665Q286 639 267 620T221 600Q200 600 187 614T173 649Q173 675 192 694T237 714Q259 714 272 700T286
665ZM449 665Q449 639 430 620T384 600Q363 600 350 614T336 649Q336 675 355 694T400 714Q422 714 435 700T449 665Z" />
<glyph unicode="&#xec;" horiz-adv-x="227" d="M128 0H40L98 433V490H186L128 58V0ZM378 733L452 581H374L256 733H378Z" />
<glyph unicode="&#xed;" horiz-adv-x="227" d="M128 0H40L98 433V490H186L128 58V0ZM230 733H352L190 581H112L230 733Z" />
<glyph unicode="&#xee;" horiz-adv-x="227" d="M128 0H40L98 433V490H186L128 58V0ZM422 661L334 580H267L391 734H474L558 579H489L422 661Z" />
<glyph unicode="&#xef;" horiz-adv-x="227" d="M128 0H40L98 433V490H186L128 58V0ZM396 665Q396 639 377 620T331 600Q310 600 297 614T283 649Q283 675 302 694T347 714Q369 714 382 700T396 665ZM559 665Q559 639 540 620T494 600Q473 600 460 614T446 649Q446
675 465 694T510 714Q532 714 545 700T559 665Z" />
<glyph unicode="&#xf0;" horiz-adv-x="508" d="M288 505Q306 505 321 502T351 492Q336 533 318 570T279 640L171 582L146 622L254 680Q242 697 230 712T207 739L264 772Q274 761 287 746T313 712L423 771L444 729L341 673Q373 625 402 566T451 439T471 302Q471
243 454 187T404 87T325 16T220 -10Q160 -10 119 18T58 93T37 199Q37 257 55 312T106 410T185 479T288 505ZM280 445Q243 445 216 427T170 378T141 315T126 251T121 200Q121 164 130 130T163 73T227 50Q257 50 282 63T326 101T359 156T379 223T386 293Q386 330
377 364T344 422T280 445Z" />
<glyph unicode="&#xf1;" horiz-adv-x="494" d="M164 500Q166 493 169 472T173 429Q193 446 217 463T269 491T330 503Q353 503 375 498T414 478T443 439T454 373Q454 353 451 329L415 58V0H327L368 303Q370 316 371 330T373 357Q373 377 368 393T349 420T308 431Q286
431 264 423T223 402T190 378T170 362L121 0H41L88 350Q90 364 91 377T92 402Q92 432 88 451T80 480T76 490L164 500ZM476 701Q471 679 458 656T424 618T377 602Q349 602 326 612T282 631T234 641Q221 641 212 633T196 614H147Q154 639 169 661T206 699T255 714Q282
714 304 705T348 685T389 675Q401 675 412 682T429 701H476Z" />
<glyph unicode="&#xf2;" horiz-adv-x="499" d="M216 -13Q153 -13 113 17T55 97T36 204Q36 257 52 310T99 406T176 476T283 503Q346 503 385 473T444 393T463 286Q463 233 447 180T400 84T323 14T216 -13ZM223 49Q262 49 291 69T340 124T370 199T380 281Q380 323
370 359T336 418T276 441Q237 441 208 421T159 366T129 291T119 209Q119 167 129 131T163 72T223 49ZM263 733L337 581H259L141 733H263Z" />
<glyph unicode="&#xf3;" horiz-adv-x="499" d="M216 -13Q153 -13 113 17T55 97T36 204Q36 257 52 310T99 406T176 476T283 503Q346 503 385 473T444 393T463 286Q463 233 447 180T400 84T323 14T216 -13ZM223 49Q262 49 291 69T340 124T370 199T380 281Q380 323
370 359T336 418T276 441Q237 441 208 421T159 366T129 291T119 209Q119 167 129 131T163 72T223 49ZM371 733H493L331 581H253L371 733Z" />
<glyph unicode="&#xf4;" horiz-adv-x="499" d="M216 -13Q153 -13 113 17T55 97T36 204Q36 257 52 310T99 406T176 476T283 503Q346 503 385 473T444 393T463 286Q463 233 447 180T400 84T323 14T216 -13ZM223 49Q262 49 291 69T340 124T370 199T380 281Q380 323
370 359T336 418T276 441Q237 441 208 421T159 366T129 291T119 209Q119 167 129 131T163 72T223 49ZM307 661L219 580H152L276 734H359L443 579H374L307 661Z" />
<glyph unicode="&#xf5;" horiz-adv-x="499" d="M216 -13Q153 -13 113 17T55 97T36 204Q36 257 52 310T99 406T176 476T283 503Q346 503 385 473T444 393T463 286Q463 233 447 180T400 84T323 14T216 -13ZM223 49Q262 49 291 69T340 124T370 199T380 281Q380 323
370 359T336 418T276 441Q237 441 208 421T159 366T129 291T119 209Q119 167 129 131T163 72T223 49ZM469 701Q464 679 451 656T417 618T370 602Q342 602 319 612T275 631T227 641Q214 641 205 633T189 614H140Q147 639 162 661T199 699T248 714Q275 714 297 705T341
685T382 675Q394 675 405 682T422 701H469Z" />
<glyph unicode="&#xf6;" horiz-adv-x="499" d="M216 -13Q153 -13 113 17T55 97T36 204Q36 257 52 310T99 406T176 476T283 503Q346 503 385 473T444 393T463 286Q463 233 447 180T400 84T323 14T216 -13ZM223 49Q262 49 291 69T340 124T370 199T380 281Q380 323
370 359T336 418T276 441Q237 441 208 421T159 366T129 291T119 209Q119 167 129 131T163 72T223 49ZM281 665Q281 639 262 620T216 600Q195 600 182 614T168 649Q168 675 187 694T232 714Q254 714 267 700T281 665ZM444 665Q444 639 425 620T379 600Q358 600 345
614T331 649Q331 675 350 694T395 714Q417 714 430 700T444 665Z" />
<glyph unicode="&#xf7;" horiz-adv-x="630" d="M400 409Q400 381 378 361T329 340Q307 340 292 354T276 391Q276 420 297 440T346 461Q369 461 384 447T400 409ZM72 276H571L562 210H63L72 276ZM356 96Q356 77 346 62T321 37T286 27Q263 27 248 41T232 78Q232
107 253 127T302 147Q325 147 340 133T356 96Z" />
<glyph unicode="&#xf8;" horiz-adv-x="499" d="M216 -13Q153 -13 113 17T55 97T36 204Q36 257 52 310T99 406T176 476T283 503Q346 503 385 473T444 393T463 286Q463 233 447 180T400 84T323 14T216 -13ZM223 49Q262 49 291 69T340 124T370 199T380 281Q380 323
370 359T336 418T276 441Q237 441 208 421T159 366T129 291T119 209Q119 167 129 131T163 72T223 49ZM303 -61L261 -28L711 567L756 534L303 -61Z" />
<glyph unicode="&#xf9;" horiz-adv-x="510" d="M168 490L125 171Q124 160 123 150T122 130Q122 87 139 68T189 49Q205 49 223 55T260 77T295 118T325 184T346 279L368 432V490H456L405 121Q404 114 404 107T403 95Q403 71 411 62T431 53Q446 53 459 58T472 63L483
11Q483 11 471 6T441 -6T408 -12Q391 -12 373 -4T342 23T329 71H325Q320 63 309 49T280 21T235 -3T168 -13Q101 -13 71 23T40 119Q40 138 43 159L81 433V490H168ZM247 733L321 581H243L125 733H247Z" />
<glyph unicode="&#xfa;" horiz-adv-x="510" d="M168 490L125 171Q124 160 123 150T122 130Q122 87 139 68T189 49Q205 49 223 55T260 77T295 118T325 184T346 279L368 432V490H456L405 121Q404 114 404 107T403 95Q403 71 411 62T431 53Q446 53 459 58T472 63L483
11Q483 11 471 6T441 -6T408 -12Q391 -12 373 -4T342 23T329 71H325Q320 63 309 49T280 21T235 -3T168 -13Q101 -13 71 23T40 119Q40 138 43 159L81 433V490H168ZM355 733H477L315 581H237L355 733Z" />
<glyph unicode="&#xfb;" horiz-adv-x="510" d="M168 490L125 171Q124 160 123 150T122 130Q122 87 139 68T189 49Q205 49 223 55T260 77T295 118T325 184T346 279L368 432V490H456L405 121Q404 114 404 107T403 95Q403 71 411 62T431 53Q446 53 459 58T472 63L483
11Q483 11 471 6T441 -6T408 -12Q391 -12 373 -4T342 23T329 71H325Q320 63 309 49T280 21T235 -3T168 -13Q101 -13 71 23T40 119Q40 138 43 159L81 433V490H168ZM291 661L203 580H136L260 734H343L427 579H358L291 661Z" />
<glyph unicode="&#xfc;" horiz-adv-x="510" d="M168 490L125 171Q124 160 123 150T122 130Q122 87 139 68T189 49Q205 49 223 55T260 77T295 118T325 184T346 279L368 432V490H456L405 121Q404 114 404 107T403 95Q403 71 411 62T431 53Q446 53 459 58T472 63L483
11Q483 11 471 6T441 -6T408 -12Q391 -12 373 -4T342 23T329 71H325Q320 63 309 49T280 21T235 -3T168 -13Q101 -13 71 23T40 119Q40 138 43 159L81 433V490H168ZM265 665Q265 639 246 620T200 600Q179 600 166 614T152 649Q152 675 171 694T216 714Q238 714 251
700T265 665ZM428 665Q428 639 409 620T363 600Q342 600 329 614T315 649Q315 675 334 694T379 714Q401 714 414 700T428 665Z" />
<glyph unicode="&#xfd;" horiz-adv-x="409" d="M-31 -164Q1 -162 26 -152T73 -121T112 -69T149 3L45 490H130Q139 444 148 397T166 301T184 205T201 108Q222 158 244 206T288 302T332 397T375 490H451L203 -51Q180 -102 146 -142T65 -205T-40 -230L-31 -164ZM332
733H454L292 581H214L332 733Z" />
<glyph unicode="&#xfe;" horiz-adv-x="514" d="M317 503Q373 503 408 478T459 410T476 318Q476 252 459 193T408 87T328 14T223 -13Q192 -13 166 -3T125 18L101 -169V-224H13L137 707V764H225L180 432Q206 466 240 484T317 503ZM301 441Q267 441 243 423T201 374T173
308T156 239T145 178Q141 151 139 127T134 83Q149 65 175 57T226 49Q267 49 297 71T347 131T378 219T388 322Q388 352 381 379T354 423T301 441Z" />
<glyph unicode="&#xff;" horiz-adv-x="409" d="M-31 -164Q1 -162 26 -152T73 -121T112 -69T149 3L45 490H130Q139 444 148 397T166 301T184 205T201 108Q222 158 244 206T288 302T332 397T375 490H451L203 -51Q180 -102 146 -142T65 -205T-40 -230L-31 -164ZM242
665Q242 639 223 620T177 600Q156 600 143 614T129 649Q129 675 148 694T193 714Q215 714 228 700T242 665ZM405 665Q405 639 386 620T340 600Q319 600 306 614T292 649Q292 675 311 694T356 714Q378 714 391 700T405 665Z" />
<glyph unicode="&#x2013;" horiz-adv-x="487" d="M-2 228L7 285H493L484 228H-2Z" />
<glyph unicode="&#x2014;" horiz-adv-x="837" d="M-2 228L7 285H843L834 228H-2Z" />
<glyph unicode="&#x2018;" horiz-adv-x="191" d="M168 726L198 693Q176 674 163 661T145 639T140 619Q140 610 150 601T170 579T180 547Q180 515 159 498T111 480Q79 480 62 501T45 551Q45 588 63 620T110 680T168 726Z" />
<glyph unicode="&#x2019;" horiz-adv-x="261" d="M216 654Q216 618 198 586T151 526T93 479L63 512Q73 521 86 533T110 558T121 586Q121 596 111 605T91 627T81 658Q81 690 102 707T150 724Q182 724 199 704T216 654Z" />
<glyph unicode="&#x201a;" horiz-adv-x="252" d="M171 50Q171 14 153 -18T106 -78T47 -125L18 -92Q28 -83 41 -71T65 -46T75 -18Q75 -8 65 1T45 22T35 54Q35 86 56 103T105 120Q137 120 154 100T171 50Z" />
<glyph unicode="&#x201c;" horiz-adv-x="381" d="M168 726L198 693Q176 674 163 661T145 639T140 619Q140 610 150 601T170 579T180 547Q180 515 159 498T111 480Q78 480 62 501T45 551Q45 588 63 620T110 680T168 726ZM358 726L388 693Q366 674 353 661T335 639T330
619Q330 610 340 601T360 579T370 547Q370 515 349 498T301 481Q269 481 252 502T235 551Q235 588 253 620T300 680T358 726Z" />
<glyph unicode="&#x201d;" horiz-adv-x="451" d="M216 654Q216 618 198 586T151 526T93 479L63 512Q73 521 86 533T110 558T121 586Q121 596 111 605T91 627T81 658Q81 690 102 707T150 725Q182 725 199 704T216 654ZM406 654Q406 618 388 586T341 526T282 479L253
512Q263 521 276 533T300 558T310 586Q310 596 300 605T280 627T270 658Q270 690 291 707T340 725Q372 725 389 704T406 654Z" />
<glyph unicode="&#x201e;" horiz-adv-x="440" d="M170 50Q170 14 152 -18T105 -78T47 -125L17 -92Q38 -75 50 -62T69 -38T75 -18Q75 -8 65 1T45 22T35 54Q35 86 56 103T104 121Q136 121 153 100T170 50ZM360 50Q360 14 342 -18T295 -78T237 -125L207 -92Q228 -75
240 -62T259 -38T265 -18Q265 -8 255 1T235 22T225 54Q225 86 246 103T294 121Q326 121 343 100T360 50Z" />
<glyph unicode="&#x2022;" horiz-adv-x="405" d="M349 376Q349 336 329 302T274 248T200 227Q149 227 118 259T86 339Q86 378 106 411T161 466T235 487Q286 487 317 455T349 376Z" />
<glyph unicode="&#x2039;" horiz-adv-x="304" d="M56 329L201 490L262 479L146 329L264 178L205 169L56 329Z" />
<glyph unicode="&#x203a;" horiz-adv-x="310" d="M54 176L172 327L56 477L117 488L262 327L113 167L54 176Z" />
</font>
</defs>
</svg>
