<?xml version="1.0" standalone="no"?>
<!DOCTYPE svg PUBLIC "-//W3C//DTD SVG 1.1//EN" "http://www.w3.org/Graphics/SVG/1.1/DTD/svg11.dtd">
<svg xmlns="http://www.w3.org/2000/svg">
<defs >
<font id="Rosario" horiz-adv-x="493" ><font-face
    font-family="Rosario Medium"
    units-per-em="1000"
    panose-1="0 0 0 0 0 0 0 0 0 0"
    ascent="977"
    descent="-235"
    alphabetic="0" />
<glyph unicode=" " horiz-adv-x="234" />
<glyph unicode="!" horiz-adv-x="246" d="M135 729H257L156 217H92L135 729ZM170 64Q170 33 146 10T93 -13Q67 -13 51 4T34 45Q34 66 44 83T73 111T111 121Q136 121 153 105T170 64Z" />
<glyph unicode="&quot;" horiz-adv-x="300" d="M105 438H78L67 551L92 725H174L149 550L105 438ZM245 438H218L208 551L232 725H314L290 550L245 438Z" />
<glyph unicode="#" horiz-adv-x="640" d="M437 296H559V236H429L396 0H331L364 236H246L213 0H149L181 236H57V296H190L207 426H83V488H216L246 718H312L281 488H399L429 718H494L463 488H584V426H455L437 296ZM255 296H372L390 426H272L255 296Z" />
<glyph unicode="$" horiz-adv-x="535" d="M355 697Q384 697 412 692T467 676T517 649L473 577Q454 594 434 604T392 620T345 625Q311 625 280 612T229 573T209 512Q209 483 228 463T278 427T342 393T406 354T456 301T476 224Q476 153 441 100T348 19T221 -10Q171
-10 120 4T23 45L68 125Q96 104 118 90T166 70T225 63Q264 63 298 83T353 136T375 207Q375 240 356 262T307 301T242 334T178 370T128 420T109 494Q109 562 144 607T235 675T355 697ZM242 17L206 -137H131L194 17H242ZM316 669L351 815H428L367 669H316Z" />
<glyph unicode="%" horiz-adv-x="920" d="M684 730H754L276 -6H208L684 730ZM286 730Q335 730 365 710T409 655T423 575Q423 503 399 443T329 346T217 309Q168 309 138 330T93 387T79 468Q79 539 103 599T174 694T286 730ZM274 675Q231 675 203 645T162 568T149
467Q149 426 165 396T230 365Q274 365 301 395T340 473T353 577Q353 617 337 646T274 675ZM736 411Q785 411 815 391T860 335T874 254Q874 184 850 124T779 27T667 -10Q619 -10 589 10T544 67T530 147Q530 219 554 279T624 375T736 411ZM723 355Q680 355 653 325T612
248T599 146Q599 106 615 76T679 46Q724 46 751 75T790 153T802 256Q802 296 787 325T723 355ZM286 730H703L696 675H274L286 730Z" />
<glyph unicode="&amp;" horiz-adv-x="639" d="M231 419L246 356Q200 347 169 322T121 262T104 192Q104 156 119 125T166 76T244 57Q305 57 346 78T407 136T428 213Q428 248 416 282T377 349L440 389Q472 357 488 317T504 234Q504 189 486 146T432 67T343 12T220
-9Q149 -9 102 14T31 78T7 166Q7 216 33 267T109 358T231 419ZM388 737Q424 737 459 725T528 686L474 623Q430 670 388 670Q356 670 332 643T293 569T279 459Q279 383 296 315T346 194T425 108Q455 86 492 73T567 60Q581 60 594 62T622 68L631 -1Q611 -5 592 -7T555
-9Q522 -9 487 -2T417 19T354 53Q300 92 262 153T203 292T182 459Q182 547 210 609T286 704T388 737ZM386 420H616L598 349H377L386 420Z" />
<glyph unicode="&apos;" horiz-adv-x="157" d="M144 550L100 438H73L62 551L87 725H169L144 550Z" />
<glyph unicode="(" horiz-adv-x="323" d="M359 727Q253 611 198 477T143 190Q143 104 166 26T239 -130L169 -141Q115 -62 86 27T57 212Q57 311 87 404T170 582T292 738L359 727Z" />
<glyph unicode=")" horiz-adv-x="328" d="M299 384Q299 285 269 192T187 15T65 -141L-3 -130Q103 -14 158 120T213 406Q213 493 190 572T118 727L187 738Q242 659 270 569T299 384Z" />
<glyph unicode="*" horiz-adv-x="473" d="M259 732H342L303 590H260L259 732ZM314 583L447 649L466 567L322 539L314 583ZM128 645L250 582L231 544L95 565L128 645ZM231 530L264 502L178 377L120 425L231 530ZM277 502L315 526L401 426L327 375L277 502Z" />
<glyph unicode="+" horiz-adv-x="642" d="M319 0H246L275 210H63L73 282H286L315 491H387L358 282H572L562 210H348L319 0Z" />
<glyph unicode="," horiz-adv-x="249" d="M172 52Q172 15 153 -18T106 -78T47 -126L16 -92Q35 -76 48 -63T67 -39T74 -18Q74 -8 64 1T44 22T34 55Q34 87 55 105T105 123Q137 123 154 102T172 52Z" />
<glyph unicode="-" horiz-adv-x="322" d="M35 220L47 295H285L273 220H35Z" />
<glyph unicode="." horiz-adv-x="242" d="M167 65Q167 33 143 10T88 -13Q63 -13 46 4T29 46Q29 67 40 84T69 112T106 123Q133 123 150 107T167 65Z" />
<glyph unicode="/" horiz-adv-x="293" d="M-15 -7L242 725H313L57 -7H-15Z" />
<glyph unicode="0" horiz-adv-x="540" d="M300 504Q367 504 412 476T481 398T504 286Q504 230 487 177T436 81T353 13T240 -13Q175 -13 129 16T60 95T36 205Q36 263 54 316T106 412T190 479T300 504ZM293 439Q245 439 212 417T160 358T133 278T124 193Q124 132
151 92T246 52Q296 52 328 74T380 133T407 212T416 298Q416 339 404 371T366 421T293 439Z" />
<glyph unicode="1" horiz-adv-x="378" d="M287 494L231 72H336L327 0H27L36 72H145L189 398L80 367L73 416L235 494H287Z" />
<glyph unicode="2" horiz-adv-x="439" d="M274 509Q331 509 371 483T411 400Q411 352 387 307T322 221T233 143T134 73H403L373 -1H-5L3 60Q62 97 118 137T220 218T293 301T320 383Q320 414 301 427T253 441Q217 441 175 424T104 377L64 434Q111 470 167 489T274 509Z" />
<glyph unicode="3" horiz-adv-x="384" d="M244 510Q300 510 334 486T369 410Q369 368 345 328T283 254T198 197Q231 196 261 183T311 143T330 75Q330 17 303 -28T230 -106T125 -159T4 -188T-119 -196L-117 -150Q-56 -147 5 -134T116 -95T197 -30T228 66Q228 108
204 127T143 147Q129 147 113 144T79 135L62 185Q93 199 129 220T197 267T251 325T272 389Q272 413 259 427T220 442Q187 442 146 424T78 378L40 439Q87 474 141 492T244 510Z" />
<glyph unicode="4" horiz-adv-x="480" d="M310 498H413L353 73H455L425 0H343L317 -185H227L253 0H-19L-12 42L310 498ZM308 392L88 73H264L308 392Z" />
<glyph unicode="5" horiz-adv-x="371" d="M165 497H417L379 407H189L133 305Q208 274 252 226T296 106Q296 42 268 -12T189 -106T75 -173T-57 -209L-63 -163Q13 -144 71 -111T161 -26T194 94Q194 155 150 200T37 270L165 497Z" />
<glyph unicode="6" horiz-adv-x="523" d="M515 732L531 682Q449 649 378 598T254 481T170 343T139 193Q139 152 151 120T186 71T241 53Q285 53 317 80T365 147T382 227Q382 271 359 304T284 337Q252 337 215 324T139 284L161 351Q199 380 240 393T320 407Q376
407 413 386T469 328T487 248Q487 195 467 148T410 65T326 8T224 -13Q174 -13 132 8T63 74T37 186Q37 259 63 328T134 461T241 577T372 669T515 732Z" />
<glyph unicode="7" horiz-adv-x="413" d="M63 497H437L431 452L62 -186H-45L339 417H29L63 497Z" />
<glyph unicode="8" horiz-adv-x="474" d="M317 729Q355 729 388 715T443 672T464 599Q464 543 427 484T313 380L270 421Q324 452 352 498T381 589Q381 629 359 648T309 668Q278 668 254 650T216 604T202 542Q202 497 231 469T298 411Q330 387 361 360T413 298T435
212Q435 146 402 96T315 18T197 -11Q151 -11 112 5T49 55T25 137Q25 191 48 234T111 314T203 380L241 338Q180 302 146 255T112 148Q112 100 139 76T203 52Q239 52 268 71T314 121T331 188Q331 224 312 249T264 298T204 346Q178 368 155 393T117 449T102 520Q102
569 121 608T172 674T241 715T317 729Z" />
<glyph unicode="9" horiz-adv-x="528" d="M305 509Q357 509 399 488T467 423T493 310Q493 237 468 169T397 41T291 -69T161 -156T17 -215L2 -166Q84 -134 154 -85T278 26T361 158T391 303Q391 345 379 376T345 425T289 443Q246 443 214 417T164 350T147 270Q147
225 170 193T246 160Q278 160 315 173T390 212L368 145Q331 117 289 103T210 89Q152 89 116 111T61 169T43 248Q43 301 63 348T120 432T204 488T305 509Z" />
<glyph unicode=":" horiz-adv-x="247" d="M212 374Q211 343 188 321T134 298Q108 298 91 315T75 358Q76 389 99 411T153 434Q179 434 196 417T212 374ZM168 62Q168 32 144 10T91 -13Q65 -13 48 4T31 47Q32 77 56 100T109 123Q135 123 152 106T168 62Z" />
<glyph unicode=";" horiz-adv-x="251" d="M216 370Q216 350 205 332T177 303T138 292Q113 292 96 309T79 352Q79 382 102 405T156 428Q183 428 199 412T216 370ZM105 123Q137 123 154 102T172 52Q172 15 153 -18T106 -78T47 -126L16 -92Q35 -76 48 -63T67 -39T74
-18Q74 -8 64 1T44 22T34 55Q34 87 55 105T105 123Z" />
<glyph unicode="&lt;" horiz-adv-x="630" d="M73 280L601 496L591 418L166 244L541 69L530 -8L63 210L73 280Z" />
<glyph unicode="=" horiz-adv-x="630" d="M86 375H585L575 305H76L86 375ZM60 186H559L548 114H49L60 186Z" />
<glyph unicode="&gt;" horiz-adv-x="630" d="M43 69L467 244L93 418L103 496L571 280L561 210L32 -8L43 69Z" />
<glyph unicode="?" horiz-adv-x="429" d="M279 725Q320 725 354 710T409 665T430 590Q430 539 411 505T361 447T300 407Q262 386 234 366T206 314Q206 304 211 294T229 277T264 269L240 205Q199 206 173 221T135 259T123 305Q123 346 142 374T192 423T252 461Q288
482 311 506T334 573Q334 613 313 630T259 648Q213 648 169 617L150 688Q180 707 213 716T279 725ZM174 123Q199 123 216 106T233 65Q233 34 209 11T154 -13Q129 -13 113 4T96 45Q96 77 119 100T174 123Z" />
<glyph unicode="@" horiz-adv-x="1019" d="M553 729Q639 729 715 703T851 625T944 500T978 331Q978 270 961 210T912 101T834 23T731 -6Q700 -6 673 -1T626 22T597 72H593Q569 31 530 9T450 -13Q395 -13 362 15T312 91T296 194Q296 250 311 305T358 405T436 477T547
504Q575 504 604 495T659 459L682 496H728Q713 396 703 329T686 219T676 153T672 117T671 96Q671 76 685 64T734 52Q775 52 808 76T863 140T898 229T910 331Q910 412 882 475T805 582T691 649T553 672Q445 672 363 631T227 522T145 370T117 201Q117 126 138 57T202
-66T308 -152T460 -184Q511 -184 564 -170L581 -225Q552 -232 522 -236T460 -241Q356 -241 280 -204T152 -105T75 38T49 204Q49 280 69 356T130 499T231 618T372 699T553 729ZM550 439Q506 439 475 418T423 362T393 283T384 195Q384 138 403 96T467 54Q500 54 525
75T568 134T599 216T618 311L632 414Q591 439 550 439Z" />
<glyph unicode="A" horiz-adv-x="602" d="M416 725L559 0H455L410 243H186L74 0H-13L326 725H416ZM345 596L219 315H396L345 596Z" />
<glyph unicode="B" horiz-adv-x="578" d="M550 576Q550 531 531 494T478 432T401 396Q461 381 497 341T534 234Q534 167 510 121T444 49T349 12T237 0H40L129 661L128 725H354Q393 725 427 718T490 695T534 649T550 576ZM449 568Q449 601 434 619T395 644T341
652H224L194 430H293Q340 430 374 445T429 490T449 568ZM435 241Q435 283 413 307T357 343T284 354H183L147 73H249Q304 73 346 91T411 146T435 241Z" />
<glyph unicode="C" horiz-adv-x="585" d="M315 -10Q245 -10 193 15T108 84T58 184T41 301Q41 378 65 455T139 595T258 697T421 736Q455 736 491 729T562 705T620 660L561 597Q532 631 492 647T411 663Q348 663 299 631T215 548T163 433T145 308Q145 245 165 190T226
101T332 67Q376 67 422 79T515 117L541 59Q509 37 472 22T396 -2T315 -10Z" />
<glyph unicode="D" horiz-adv-x="677" d="M640 434Q640 353 618 275T550 136T435 37T273 0H40L129 661L128 725H375Q443 725 493 703T576 642T624 549T640 434ZM539 429Q539 472 530 511T501 582T448 633T364 652H224L147 73H279Q334 73 377 95T450 155T500 238T529
334T539 429Z" />
<glyph unicode="E" horiz-adv-x="501" d="M127 725H542L532 652H222L190 408H430L419 336H180L145 73H455L445 0H40L128 661L127 725Z" />
<glyph unicode="F" horiz-adv-x="468" d="M127 725H511L501 652H222L190 409H411L400 336H180L134 0H39L127 661V725Z" />
<glyph unicode="G" horiz-adv-x="667" d="M422 735Q456 735 497 728T578 702T642 653L582 591Q556 617 532 632T479 655T412 663Q341 663 290 630T206 541T158 422T143 294Q143 250 152 210T182 137T237 87T322 68Q372 68 411 91T476 153T507 240L515 305H350L359
375H622Q608 280 597 188T578 0H527L508 75Q462 32 410 11T296 -10Q208 -10 151 29T68 135T41 281Q41 366 65 446T137 592T256 696T422 735Z" />
<glyph unicode="H" horiz-adv-x="672" d="M463 0L509 340H181L135 0H39L128 661L127 725H233L191 412H519L561 725H657L559 0H463Z" />
<glyph unicode="I" horiz-adv-x="251" d="M130 725H236L138 0H42L131 661L130 725Z" />
<glyph unicode="J" horiz-adv-x="253" d="M133 725H239L146 55Q139 2 126 -46T88 -131T22 -191T-83 -220L-90 -164Q-51 -158 -25 -137T16 -85T39 -20T51 46L134 660L133 725Z" />
<glyph unicode="K" horiz-adv-x="558" d="M233 725L135 0H39L128 661L127 725H233ZM496 725H589L324 402L510 0H401L220 389L496 725Z" />
<glyph unicode="L" horiz-adv-x="469" d="M235 725L147 73H434L424 0H40L129 661L128 725H235Z" />
<glyph unicode="M" horiz-adv-x="795" d="M261 725L367 244Q371 224 374 204T381 157Q391 184 400 204T418 244L652 725H780L682 0H586L653 500Q655 522 658 544T665 594Q655 567 645 545T623 500L382 -2H323L215 499Q211 519 206 542T196 595Q193 567 191 544T185
499L117 0H39L127 662V725H261Z" />
<glyph unicode="N" horiz-adv-x="675" d="M249 725L476 258Q484 242 492 224T508 181Q510 204 512 222T517 257L580 725H659L561 -5H497L229 542Q222 558 215 575T199 613Q197 591 195 573T191 538L119 0H40L129 661L128 725H249Z" />
<glyph unicode="O" horiz-adv-x="708" d="M303 -10Q235 -10 186 13T104 78T57 173T41 290Q41 371 64 450T132 593T246 696T406 735Q499 735 557 696T643 590T671 438Q671 355 648 275T578 131T464 28T303 -10ZM317 63Q372 63 414 86T486 148T534 235T561 335T570
433Q570 491 555 543T501 629T397 663Q341 663 299 640T227 577T179 490T151 390T142 292Q142 235 158 182T212 96T317 63Z" />
<glyph unicode="P" horiz-adv-x="539" d="M129 725H330Q389 725 437 708T515 650T544 543Q544 464 510 407T415 319T276 287H176L138 0H41L130 661L129 725ZM225 652L186 359H284Q334 359 369 383T424 446T443 533Q443 591 412 621T322 652H225Z" />
<glyph unicode="Q" horiz-adv-x="708" d="M1082 -173Q1020 -194 968 -207T851 -221Q791 -221 730 -202T610 -152T494 -92T388 -39Q363 -27 339 -22T295 -14Q203 -4 147 37T66 143T41 289Q41 370 64 449T132 593T246 696T407 735Q499 735 557 696T643 589T671 437Q671
350 646 267T570 117T440 18Q454 13 468 7T494 -7Q535 -30 585 -55T690 -102T796 -138T894 -153Q921 -153 950 -149T1008 -137T1066 -122L1082 -173ZM317 63Q372 63 414 86T486 148T534 235T562 335T571 433Q571 476 562 517T534 591T481 643T397 663Q342 663 300
640T228 577T179 490T152 390T143 292Q143 235 158 182T212 96T317 63Z" />
<glyph unicode="R" horiz-adv-x="568" d="M136 0H39L128 661L127 725H347Q401 725 447 707T522 649T550 547Q550 492 528 446T466 368T369 319L534 0H425L233 374H257Q342 374 395 416T449 539Q449 596 416 624T328 652H223L136 0Z" />
<glyph unicode="S" horiz-adv-x="505" d="M337 735Q366 735 394 730T449 714T500 687L455 615Q436 632 416 642T374 658T327 663Q294 663 263 650T211 611T191 550Q191 516 210 493T260 450T325 412T389 369T438 309T458 224Q458 153 423 100T331 19T203 -10Q153
-10 102 4T5 45L50 125Q78 104 100 90T148 70T207 63Q246 63 280 83T335 136T357 207Q357 245 338 270T289 315T224 353T160 394T111 450T92 532Q92 600 126 645T217 713T337 735Z" />
<glyph unicode="T" horiz-adv-x="515" d="M49 725H559L550 652H343L255 0H158L245 652H39L49 725Z" />
<glyph unicode="U" horiz-adv-x="641" d="M210 725L145 243Q144 232 143 223T142 202Q142 162 156 131T202 81T283 63Q343 63 385 87T452 155T484 256L548 725H627L563 260Q553 184 520 123T426 26T269 -10Q208 -10 165 5T96 48T57 113T44 196Q44 208 45 222T48
249L104 662L103 725H210Z" />
<glyph unicode="V" horiz-adv-x="524" d="M144 725Q170 584 197 443T244 160Q283 254 326 348T413 537T500 725H584L246 -3H184L43 725H144Z" />
<glyph unicode="W" horiz-adv-x="807" d="M143 725Q151 663 158 605T173 491T186 381T199 272T210 162Q230 218 249 272T290 381T333 492T378 605T426 725H503Q511 663 518 605T533 491T546 381T558 272T569 162Q589 218 609 273T651 382T693 492T738 605T786
725H865L579 -3H497Q489 58 482 114T467 224T454 331T442 437T430 546Q411 491 392 437T352 330T310 224T266 114T219 -3H137L43 725H143Z" />
<glyph unicode="X" horiz-adv-x="548" d="M477 725H584L70 0H-35L477 725ZM190 725L507 0H396L81 725H190Z" />
<glyph unicode="Y" horiz-adv-x="484" d="M150 725L268 448L453 725H544L294 353L246 0H150L197 355L41 725H150Z" />
<glyph unicode="Z" horiz-adv-x="534" d="M100 725H548L541 657L109 73H474L458 0H-17L-9 69L422 652H90L100 725Z" />
<glyph unicode="[" horiz-adv-x="330" d="M235 675L130 -80H246L238 -130H39L159 725H358L351 675H235Z" />
<glyph unicode="\" horiz-adv-x="359" d="M2 725H72L325 0H256L2 725Z" />
<glyph unicode="]" horiz-adv-x="325" d="M-10 -129L-2 -78H114L219 676H102L110 725H309L189 -129H-10Z" />
<glyph unicode="^" horiz-adv-x="618" d="M331 395L98 0H20L309 492H379L529 0H451L331 395Z" />
<glyph unicode="_" horiz-adv-x="467" d="M-20 -130L-10 -69H484L475 -130H-20Z" />
<glyph unicode="`" horiz-adv-x="278" d="M222 733L298 579H216L97 733H222Z" />
<glyph unicode="a" horiz-adv-x="510" d="M418 496H465Q450 396 440 329T423 219T413 153T409 117T408 96Q408 79 414 68T439 57Q449 57 460 59T481 65L492 13Q476 4 455 -3T413 -11Q378 -11 357 13T333 72H329Q306 31 267 9T187 -13Q132 -13 98 15T49 91T33 194Q33
250 48 305T95 405T173 477T284 504Q315 504 347 492T407 448V385Q375 413 347 426T287 439Q243 439 212 418T160 362T130 283T121 195Q121 138 140 96T204 54Q237 54 262 75T305 134T336 216T355 311L369 417L418 496Z" />
<glyph unicode="b" horiz-adv-x="494" d="M38 34L126 708L125 765H219L175 439Q188 453 209 468T258 493T313 504Q367 504 399 477T446 404T461 300Q461 235 444 179T395 79T316 12T209 -13Q168 -13 122 -2T38 34L83 94Q116 68 146 60T207 52Q251 52 282 73T333
129T363 206T373 290Q373 352 356 391T295 431Q269 431 243 419T197 390T164 361L122 55L38 34Z" />
<glyph unicode="c" horiz-adv-x="420" d="M378 390Q355 412 331 423T282 434Q241 434 211 415T161 364T131 293T121 215Q121 133 150 95T235 57Q261 57 292 65T359 89L383 36Q343 11 302 -1T218 -13Q162 -13 121 12T56 86T33 204Q33 259 49 312T98 409T178 478T289
504Q324 504 360 493T431 453L378 390Z" />
<glyph unicode="d" horiz-adv-x="511" d="M409 711L408 765H501Q482 630 465 513T436 306T416 161T408 95Q408 79 414 68T439 57Q449 57 460 59T481 65L492 13Q476 4 455 -3T413 -11Q378 -11 357 13T333 72H329Q306 31 267 9T187 -13Q132 -13 98 15T49 91T33 194Q33
250 48 305T95 405T173 477T284 504Q315 504 347 492T407 448V385Q375 413 347 426T287 439Q243 439 212 418T160 362T130 283T121 195Q121 138 140 96T204 54Q237 54 262 75T305 134T336 216T355 311L409 711Z" />
<glyph unicode="e" horiz-adv-x="456" d="M292 504Q328 504 360 493T412 458T432 395Q432 351 409 315T344 252T242 213T110 201V263Q152 260 193 268T268 293T322 335T342 390Q342 414 325 426T282 439Q243 439 213 420T163 367T132 294T122 214Q122 134 156
97T248 60Q277 60 311 69T384 96L411 45Q396 34 376 24T333 6T285 -8T235 -13Q163 -13 119 17T54 97T34 207Q34 260 50 313T99 409T180 478T292 504Z" />
<glyph unicode="f" horiz-adv-x="273" d="M-95 -162Q-52 -171 -24 -160T21 -121T43 -50L107 425H35L43 491Q56 491 71 492T100 503T120 534Q132 581 147 623T187 699T247 752T338 771Q379 771 408 760T462 731L422 669Q404 687 385 696T343 705Q302 705 276 686T236
635T214 566T201 491H314L305 425H192L126 -59Q112 -163 48 -204T-109 -221L-95 -162Z" />
<glyph unicode="g" horiz-adv-x="487" d="M418 496H465L397 24Q391 -21 377 -66T338 -148T269 -207T158 -230Q120 -230 88 -221T35 -201T4 -183L48 -110Q68 -132 96 -146T150 -161Q204 -161 236 -141T284 -86T307 -7L316 49H312Q294 25 261 6T187 -13Q132 -13
98 15T49 91T33 194Q33 250 48 305T95 405T173 477T284 504Q315 504 347 492T407 448V385Q375 413 347 426T287 439Q243 439 212 418T160 362T130 283T121 195Q121 138 140 96T204 54Q237 54 262 75T305 134T336 216T355 311L369 417L418 496Z" />
<glyph unicode="h" horiz-adv-x="492" d="M222 765L176 436Q205 461 243 482T326 504Q363 504 391 492T435 452T451 375Q451 353 448 329L413 57L415 0H319L360 305Q362 317 363 329T364 355Q364 375 359 392T341 419T302 429Q281 429 260 421T220 400T188 378T168
361L119 0H34L129 708L128 765H222Z" />
<glyph unicode="i" horiz-adv-x="227" d="M230 671Q230 645 210 624T162 602Q139 602 124 617T109 654Q109 681 129 702T177 724Q201 724 215 708T230 671ZM189 491L131 58V0H38L96 434V491H189Z" />
<glyph unicode="j" horiz-adv-x="229" d="M232 671Q232 645 212 623T163 601Q140 601 125 617T110 654Q110 681 130 702T178 723Q202 723 217 708T232 671ZM192 491L129 31Q123 -9 112 -51T81 -131T27 -195T-55 -227L-66 -177Q-24 -157 -2 -126T28 -57T42 17L100
435L99 491H192Z" />
<glyph unicode="k" horiz-adv-x="483" d="M333 504Q373 504 400 490T442 452T456 398Q456 345 418 296T295 217Q320 166 350 110T421 0H321Q282 58 250 123T189 247Q247 254 287 273T348 319T370 375Q370 401 352 415T307 429Q288 429 263 419T211 392T161 349V416Q182
440 210 460T271 492T333 504ZM226 765L123 0H37L133 708L132 765H226Z" />
<glyph unicode="l" horiz-adv-x="228" d="M227 765L131 57L132 0H37L133 708V765H227Z" />
<glyph unicode="m" horiz-adv-x="761" d="M167 501Q169 495 171 483T174 456T176 430Q196 448 219 465T269 493T324 504Q365 504 395 487T441 423Q463 443 487 461T540 491T600 504Q624 504 646 498T685 478T713 439T724 375Q724 365 723 354T720 330L684 57L685
0H592L633 307Q635 319 635 330T636 354Q636 375 631 391T613 418T573 429Q541 429 507 408T447 364L400 0H315L356 308Q358 319 358 331T359 356Q359 375 354 392T336 419T297 429Q279 429 260 421T222 401T190 379T172 364L123 0H39L86 359Q89 382 89 404Q89
441 83 464T74 490L167 501Z" />
<glyph unicode="n" horiz-adv-x="494" d="M167 501Q170 493 172 473T176 431Q196 448 220 465T272 493T332 504Q357 504 379 498T418 478T445 439T456 375Q456 354 453 330L417 57V0H324L365 306Q367 318 368 331T370 357Q370 377 365 393T347 419T307 429Q286
429 265 421T225 400T193 378T173 361L124 0H39L86 351Q88 365 89 378T90 404Q90 431 87 450T79 479T74 490L167 501Z" />
<glyph unicode="o" horiz-adv-x="499" d="M216 -13Q152 -13 112 17T53 97T34 204Q34 257 50 310T97 407T175 477T283 504Q347 504 387 474T446 394T465 288Q465 234 449 181T401 84T324 14T216 -13ZM223 52Q261 52 290 72T338 127T367 202T377 283Q377 325 367
360T335 417T275 439Q237 439 209 419T161 364T132 290T122 208Q122 167 132 132T164 74T223 52Z" />
<glyph unicode="p" horiz-adv-x="499" d="M319 504Q372 504 404 477T451 404T466 300Q466 235 449 179T400 79T321 12T214 -13Q186 -13 163 -9T122 1L100 -169V-224H7L80 336Q82 354 84 371T86 406Q86 426 83 447T72 490L164 502Q169 478 171 464T173 432Q190
450 212 466T262 493T319 504ZM300 431Q274 431 248 419T202 390T170 361L132 74Q146 65 167 59T212 52Q256 52 287 73T339 129T369 206T378 290Q378 352 361 391T300 431Z" />
<glyph unicode="q" horiz-adv-x="488" d="M418 496H465L373 -167L374 -223H280L316 49H312Q294 25 261 6T187 -13Q132 -13 98 15T49 91T33 194Q33 250 48 305T95 405T173 477T284 504Q315 504 347 492T407 448V385Q375 413 347 426T287 439Q243 439 212 418T160
362T130 283T121 195Q121 138 140 96T204 54Q237 54 262 75T305 134T336 216T355 311L369 417L418 496Z" />
<glyph unicode="r" horiz-adv-x="334" d="M171 503Q177 483 179 461T180 410Q200 435 227 456T288 490T356 503L323 407Q274 407 238 383T172 316L129 0H42L88 359Q90 370 90 382T91 406Q91 424 88 448T74 492L171 503Z" />
<glyph unicode="s" horiz-adv-x="375" d="M327 408Q306 424 283 431T235 439Q213 439 192 431T158 406T145 365Q145 340 163 324T210 292T267 259T314 213T333 144Q333 92 308 57T241 5T151 -13Q110 -13 73 -2T3 29L47 93Q69 75 96 64T148 52Q172 52 194 61T230
88T244 132Q244 161 225 179T178 212T122 244T75 285T56 348Q56 403 83 437T152 488T240 504Q273 504 305 496T364 471L327 408Z" />
<glyph unicode="t" horiz-adv-x="291" d="M230 631Q219 594 210 562T194 491H307L286 425H184L144 114Q144 113 143 106T142 92Q142 74 150 63T180 52Q192 52 209 55T246 63L254 8Q251 7 235 2T197 -8T152 -13Q126 -13 105 -6T70 22T56 81Q56 87 57 94T58 108T59
116L100 425H31L40 491Q69 491 90 503T128 546T164 631H230Z" />
<glyph unicode="u" horiz-adv-x="508" d="M172 491L129 171Q128 160 127 150T126 132Q126 91 142 73T190 54Q207 54 226 62T262 86T296 130T324 195T344 283L365 435L364 491H458L407 122Q406 116 406 109T405 97Q405 75 412 66T432 56Q446 56 459 61T474 66L486
13Q484 11 471 6T440 -6T406 -12Q389 -12 371 -3T340 24T327 69H323Q317 60 305 46T274 19T229 -3T166 -13Q100 -13 69 23T38 118Q38 137 41 157L79 436V491H172Z" />
<glyph unicode="v" horiz-adv-x="418" d="M128 491Q139 437 149 388T168 292T185 201T200 111Q218 157 237 202T278 294T323 389T371 491H452L218 -5H140L38 491H128Z" />
<glyph unicode="w" horiz-adv-x="614" d="M126 491Q133 444 139 401T151 317T162 234T172 150Q188 192 205 233T239 315T276 400T316 491H382Q391 432 399 375T414 263T428 150Q445 194 462 236T496 319T532 402T571 491H648L433 -5H369Q362 42 356 85T344 169T333
253T322 341Q305 297 288 255T252 171T215 85T175 -5H111L38 491H126Z" />
<glyph unicode="x" horiz-adv-x="399" d="M141 491L380 0H283L46 491H141ZM334 491H430L63 0H-34L334 491Z" />
<glyph unicode="y" horiz-adv-x="410" d="M-33 -162Q-1 -160 24 -149T71 -117T110 -66T145 3L41 491H131Q140 444 149 397T167 304T184 210T200 114Q220 163 241 210T283 303T327 396T371 491H452L206 -44Q182 -97 148 -139T66 -204T-42 -230L-33 -162Z" />
<glyph unicode="z" horiz-adv-x="431" d="M91 491H422V442L129 66H382L372 0H14V50L305 425H82L91 491Z" />
<glyph unicode="{" horiz-adv-x="350" d="M215 -137Q135 -137 108 -93T91 27L114 191Q117 212 114 231T99 263T62 276L68 324Q97 324 112 338T135 375T146 419L167 572Q178 648 217 692T338 736H365L359 687Q323 687 303 680T272 655T257 600L233 430Q230 404
222 378T197 331T151 299Q177 289 188 269T200 222T197 169L172 -7Q168 -40 174 -58T198 -81T250 -87L243 -137H215Z" />
<glyph unicode="|" horiz-adv-x="236" d="M142 742H214L94 -110H22L142 742Z" />
<glyph unicode="}" horiz-adv-x="321" d="M145 736Q225 736 252 693T269 572L246 409Q242 378 252 351T298 323L292 276Q265 276 249 262T225 225T214 180L193 27Q183 -48 143 -92T22 -137H-5L1 -88Q38 -88 58 -81T88 -55T103 0L127 169Q131 196 139 222T163 269T209
300Q183 311 172 331T160 378T163 430L188 607Q193 641 187 658T163 681T111 687L117 736H145Z" />
<glyph unicode="~" horiz-adv-x="559" d="M519 297Q503 276 478 254T425 218T370 203Q342 203 318 213T272 236T226 260T175 270Q157 270 140 259T110 233T86 201L39 247Q54 272 77 294T128 331T185 345Q216 345 243 335T294 311T339 288T381 278Q409 278 434
300T476 345L519 297Z" />
<glyph unicode="&#xa0;" horiz-adv-x="234" />
<glyph unicode="&#xa1;" horiz-adv-x="245" d="M113 -232H-9L92 279H156L113 -232ZM78 433Q78 463 102 486T155 509Q181 509 197 493T214 451Q214 431 204 413T175 385T137 375Q112 375 95 391T78 433Z" />
<glyph unicode="&#xa2;" d="M318 485Q352 485 386 474T450 440L398 379Q377 399 354 409T307 419Q260 419 228 388T178 308T161 207Q161 144 189 112T267 80Q317 80 378 111L402 56Q360 33 322 22T242 11Q163 11 116 62T69 202Q69 260 87 311T139 402T219 463T318
485ZM245 34L209 -119H134L197 34H245ZM292 467L327 613H404L343 467H292Z" />
<glyph unicode="&#xa3;" horiz-adv-x="581" d="M28 74H121L182 503Q191 566 222 609T303 675T412 698Q468 698 510 672T576 598L491 554Q481 583 459 604T401 625Q367 625 342 609T302 566T282 507L221 74H514L503 0H18L28 74ZM76 296L96 361H425L406 296H76Z" />
<glyph unicode="&#xa4;" horiz-adv-x="536" d="M296 459Q360 459 404 419L467 473L511 421L445 364Q454 345 459 324T464 280Q464 240 450 205T414 140L464 84L405 33L359 85Q332 66 301 55T238 44Q205 44 178 55T128 85L67 33L23 84L87 140Q70 177 70 222Q70
260 84 297T119 364L70 421L130 473L175 418Q202 437 233 448T296 459ZM287 394Q249 394 218 371T167 311T147 226Q147 172 176 141T246 109Q280 109 312 129T366 186T388 274Q389 325 362 359T287 394Z" />
<glyph unicode="&#xa5;" horiz-adv-x="604" d="M217 698L343 417L538 698H630L367 326L322 0H221L267 326L103 698H217ZM96 389H565L545 324H76L96 389ZM77 252H546L526 187H57L77 252Z" />
<glyph unicode="&#xa6;" horiz-adv-x="238" d="M142 742H214L165 393H93L142 742ZM71 234H143L94 -115H22L71 234Z" />
<glyph unicode="&#xa7;" horiz-adv-x="454" d="M389 773Q403 773 420 770T450 762T465 757L440 690Q435 692 420 697T388 703Q381 703 370 701T348 693T328 674T313 643T307 594Q307 568 309 525T316 431T326 326T335 223T342 135T345 76Q345 51 339 23T319 -32T280
-76T216 -101Q208 -149 184 -178T126 -220T57 -233Q29 -233 9 -226T-18 -217L7 -154Q11 -154 20 -157T41 -163T57 -166Q81 -166 99 -155T128 -120T138 -59Q138 -35 136 5T129 95T120 198T111 301T104 391T101 457Q101 512 115 551T157 614T229 642Q236 686 259
715T315 759T389 773ZM227 568Q202 557 192 529T182 463Q182 443 185 401T194 304T204 188T213 72T219 -27Q232 -21 241 -9T256 24T262 73Q262 103 259 149T252 251T242 363T233 473T227 568Z" />
<glyph unicode="&#xa8;" horiz-adv-x="279" d="M173 664Q173 638 153 618T107 598Q85 598 72 613T58 648Q58 675 78 694T123 714Q145 714 159 700T173 664ZM337 664Q337 638 317 618T271 598Q249 598 236 613T222 648Q222 675 242 694T287 714Q309 714 323 700T337 664Z" />
<glyph unicode="&#xa9;" horiz-adv-x="640" d="M593 250Q593 194 572 145T513 58T426 -1T320 -23Q264 -23 215 -2T128 57T69 144T48 250Q48 306 69 355T127 443T214 502T320 523Q376 523 425 502T512 443T571 356T593 250ZM554 250Q554 314 523 367T438 452T320
484Q256 484 203 452T119 367T87 250Q87 186 118 133T203 48T320 16Q385 16 438 48T522 133T554 250ZM438 118Q408 102 386 95T328 87Q281 87 248 109T197 168T180 251Q180 323 222 369T337 415Q362 415 387 406T433 382L401 341Q383 356 368 362T329 368Q300 368
282 350T255 306T246 255Q246 230 255 202T283 155T333 135Q357 135 374 143T410 164L438 118Z" />
<glyph unicode="&#xaa;" horiz-adv-x="364" d="M241 720Q259 720 279 714T313 690L330 715H365Q351 638 342 589T329 512T322 471T320 454Q320 443 324 436T341 428Q348 428 354 430T367 434L375 400Q364 394 351 389T324 384Q302 384 288 396T270 431H266Q249
405 224 394T172 383Q137 383 114 400T80 446T69 509Q69 545 80 582T114 650T168 700T241 720ZM241 674Q207 674 182 648T145 585T132 512Q132 478 144 453T183 428Q214 428 234 452T266 516T286 597L295 649Q284 662 270 668T241 674ZM82 273L90 328H321L313 273H82Z"
/>
<glyph unicode="&#xab;" horiz-adv-x="454" d="M231 180L170 171L42 332L210 495L272 483L135 331L231 180ZM383 180L320 171L193 332L361 495L425 483L286 331L383 180Z" />
<glyph unicode="&#xac;" horiz-adv-x="638" d="M509 277H80L90 341H584L547 88H483L509 277Z" />
<glyph unicode="&#xad;" horiz-adv-x="322" d="M35 220L47 295H285L273 220H35Z" />
<glyph unicode="&#xae;" horiz-adv-x="471" d="M487 604Q487 549 460 504T387 431T286 404Q230 404 185 431T113 503T86 604Q86 660 113 705T185 777T286 804Q341 804 386 777T459 705T487 604ZM453 604Q453 650 431 687T370 747T286 770Q240 770 203 748T142
688T119 604Q119 559 142 521T202 461T286 438Q332 438 370 460T430 521T453 604ZM204 719H293Q325 719 348 706T372 654Q372 633 359 619T326 597L399 493H338L273 589H256V493H204V719ZM256 681V627H279Q298 627 309 633T320 656Q320 669 310 675T286 681H256Z"
/>
<glyph unicode="&#xaf;" horiz-adv-x="304" d="M63 689H366L357 624H55L63 689Z" />
<glyph unicode="&#xb0;" horiz-adv-x="390" d="M397 614Q397 567 373 529T309 467T224 444Q167 444 130 480T92 572Q92 618 116 657T180 719T264 742Q322 742 359 706T397 614ZM332 606Q332 638 311 660T257 682Q231 682 208 668T171 631T157 580Q157 547 177
526T231 504Q257 504 280 518T317 555T332 606Z" />
<glyph unicode="&#xb1;" horiz-adv-x="632" d="M331 86H258L282 253H69L79 325H292L315 491H387L365 325H578L568 253H354L331 86ZM43 71H542L533 0H34L43 71Z" />
<glyph unicode="&#xb2;" horiz-adv-x="455" d="M95 477Q103 483 126 501T181 546T247 606T311 674T359 743T377 807Q377 834 360 851T312 868Q289 868 267 860T226 842T197 823T186 814L160 864Q160 864 173 873T209 896T264 919T336 929Q383 929 410 914T449
874T461 822Q461 786 445 749T403 678T343 611T277 553T213 507H433L404 435H95V477Z" />
<glyph unicode="&#xb3;" horiz-adv-x="455" d="M104 477Q225 483 292 522T360 618Q360 645 345 657T307 674T262 678Q249 678 239 677T227 676V725Q247 729 271 736T319 756T356 786T371 829Q371 849 355 858T312 868Q282 868 246 853T186 818L160 866Q196 893
246 911T338 929Q366 929 391 922T433 899T450 852Q450 820 434 796T394 755T347 729Q387 724 414 700T441 632Q441 610 433 584T403 531T344 481T248 442T107 423L104 477Z" />
<glyph unicode="&#xb4;" horiz-adv-x="284" d="M199 733H324L161 579H79L199 733Z" />
<glyph unicode="&#xb5;" horiz-adv-x="584" d="M227 491Q214 394 206 332T192 234T185 181T183 156T182 142Q182 111 194 88T245 64Q267 64 288 72T328 91T360 112T378 127L420 435L416 491H513Q507 448 501 401T488 309T477 223T467 150T460 98T457 76Q457 68
460 65T470 62Q479 62 490 65T509 71T519 74L529 20Q527 19 517 14T491 4T459 -7T427 -12Q401 -12 388 7T375 58Q361 44 336 28T282 0T225 -13Q194 -13 164 1L138 -186H51L134 435L130 491H227Z" />
<glyph unicode="&#xb6;" horiz-adv-x="503" d="M106 -110Q111 -111 115 -111T124 -112Q152 -112 169 -93T191 -46L242 320Q194 320 156 340T97 398T76 483Q76 555 108 607T198 689T330 718H525L517 662H461L369 10Q365 -21 347 -45T303 -85T246 -100Q242 -100
238 -100T228 -99Q213 -127 187 -143T128 -160Q110 -160 90 -154L106 -110ZM347 662L248 -46Q277 -46 294 -29T314 11L405 662H347Z" />
<glyph unicode="&#xb7;" horiz-adv-x="286" d="M216 266Q216 234 192 211T139 188Q113 188 96 205T79 247Q79 278 103 301T156 324Q183 324 199 308T216 266Z" />
<glyph unicode="&#xb8;" horiz-adv-x="203" d="M119 -116Q119 -147 99 -168T47 -202T-21 -218L-30 -173Q-16 -171 1 -166T31 -149T43 -119Q43 -100 28 -90T-5 -73L43 9H93L62 -45Q71 -48 84 -56T108 -78T119 -116Z" />
<glyph unicode="&#xb9;" horiz-adv-x="455" d="M120 497H239L284 835L164 800L153 852L324 919H376L320 497H416L408 435H111L120 497Z" />
<glyph unicode="&#xba;" horiz-adv-x="355" d="M366 581Q366 545 355 509T322 444T269 398T196 381Q155 381 127 399T86 450T73 520Q73 556 84 591T117 655T170 703T242 721Q284 721 311 702T352 651T366 581ZM301 579Q301 600 296 621T276 657T235 672Q210 672
192 658T161 621T143 573T137 525Q137 504 143 482T163 445T203 430Q229 430 247 444T278 482T295 531T301 579ZM67 273L75 328H306L297 273H67Z" />
<glyph unicode="&#xbb;" horiz-adv-x="454" d="M40 182L180 334L82 486L146 495L273 333L104 171L40 182ZM192 182L331 334L234 486L297 495L424 333L254 171L192 182Z" />
<glyph unicode="&#xbc;" horiz-adv-x="1141" d="M791 730H861L382 -6H314L791 730ZM93 307H212L257 645L137 610L126 662L297 729H349L293 307H389L381 245H84L93 307ZM927 109H699L706 150L987 483H1071L1023 171H1097L1069 109H1012L995 0H910L927 109ZM974
382L799 171H938L974 382Z" />
<glyph unicode="&#xbd;" horiz-adv-x="1141" d="M791 730H861L382 -6H314L791 730ZM93 307H212L257 645L137 610L126 662L297 729H349L293 307H389L381 245H84L93 307ZM720 42Q727 48 750 66T806 111T872 171T935 239T983 308T1002 372Q1002 399 985 416T937 433Q914
433 892 425T851 407T822 388T811 380L785 429Q785 429 797 439T833 462T889 484T961 494Q1007 494 1034 479T1074 440T1086 388Q1086 351 1070 315T1027 243T968 177T902 119T838 72H1057L1029 0H720V42Z" />
<glyph unicode="&#xbe;" horiz-adv-x="1141" d="M791 730H861L382 -6H314L791 730ZM77 287Q198 293 265 332T333 428Q333 455 318 467T280 484T235 488Q222 488 212 487T200 486V535Q220 539 244 546T292 566T329 596T344 639Q344 659 328 668T285 678Q255 678
219 663T159 628L133 676Q169 703 219 721T311 739Q339 739 364 732T406 709T423 662Q423 630 407 606T367 565T320 539Q360 534 387 510T414 442Q414 420 406 394T376 341T317 291T221 252T80 233L77 287ZM927 109H699L706 150L987 483H1071L1023 171H1097L1069
109H1012L995 0H910L927 109ZM974 382L799 171H938L974 382Z" />
<glyph unicode="&#xbf;" horiz-adv-x="431" d="M162 -234Q121 -234 87 -219T31 -174T10 -98Q10 -48 30 -14T80 44T140 84Q180 106 207 126T234 177Q234 187 229 197T212 215T176 222L201 286Q242 285 267 270T305 232T318 186Q318 145 298 117T248 68T189 30Q152
9 129 -15T106 -82Q106 -122 128 -139T181 -157Q228 -157 271 -126L291 -197Q260 -216 227 -225T162 -234ZM267 369Q241 369 224 386T207 426Q207 457 231 480T286 504Q312 504 328 487T345 446Q345 414 322 392T267 369Z" />
<glyph unicode="&#xc0;" horiz-adv-x="602" d="M416 725L559 0H455L410 243H186L74 0H-13L326 725H416ZM345 596L219 315H396L345 596ZM341 908L420 775H339L215 908H341Z" />
<glyph unicode="&#xc1;" horiz-adv-x="602" d="M416 725L559 0H455L410 243H186L74 0H-13L326 725H416ZM345 596L219 315H396L345 596ZM448 908H574L414 775H332L448 908Z" />
<glyph unicode="&#xc2;" horiz-adv-x="602" d="M416 725L559 0H455L410 243H186L74 0H-13L326 725H416ZM345 596L219 315H396L345 596ZM384 834L303 775H233L352 908H437L524 774H453L384 834Z" />
<glyph unicode="&#xc3;" horiz-adv-x="602" d="M416 725L559 0H455L410 243H186L74 0H-13L326 725H416ZM345 596L219 315H396L345 596ZM549 885Q544 862 530 839T495 800T447 784Q419 784 396 794T352 813T306 823Q293 823 283 815T267 795H216Q223 821 238 844T275
883T326 898Q353 898 375 889T418 869T459 859Q471 859 483 866T500 885H549Z" />
<glyph unicode="&#xc4;" horiz-adv-x="602" d="M416 725L559 0H455L410 243H186L74 0H-13L326 725H416ZM345 596L219 315H396L345 596ZM359 848Q359 822 340 802T293 782Q272 782 258 796T244 832Q244 858 264 878T310 898Q332 898 345 884T359 848ZM524 848Q524
822 504 802T457 782Q436 782 422 797T408 832Q408 858 428 878T474 898Q496 898 510 884T524 848Z" />
<glyph unicode="&#xc5;" horiz-adv-x="602" d="M416 725L559 0H455L410 243H186L74 0H-13L326 725H416ZM345 596L219 315H396L345 596ZM404 991Q443 991 468 965T494 902Q494 872 478 847T436 806T380 790Q343 790 317 816T291 878Q291 908 307 934T349 975T404
991ZM397 937Q375 937 360 923T344 885Q344 868 357 856T387 843Q408 843 424 858T440 895Q440 912 428 924T397 937Z" />
<glyph unicode="&#xc6;" horiz-adv-x="826" d="M416 242H216L58 0H-30L397 661L392 725H867L857 652H568L536 409H773L763 336H525L490 73H781L770 0H383L416 242ZM265 317H426L469 636L265 317Z" />
<glyph unicode="&#xc7;" horiz-adv-x="585" d="M315 -10Q245 -10 193 15T108 84T58 184T41 301Q41 378 65 455T139 595T258 697T421 736Q455 736 491 729T562 705T620 660L561 597Q532 631 492 647T411 663Q348 663 299 631T215 548T163 433T145 308Q145 245 165
190T226 101T332 67Q376 67 422 79T515 117L541 59Q509 37 472 22T396 -2T315 -10ZM353 -116Q353 -147 333 -168T281 -202T213 -218L203 -173Q218 -171 235 -166T264 -149T277 -119Q277 -100 262 -90T228 -73L277 9H327L296 -45Q304 -48 318 -56T342 -78T353 -116Z"
/>
<glyph unicode="&#xc8;" horiz-adv-x="501" d="M127 725H542L532 652H222L190 408H430L419 336H180L145 73H455L445 0H40L128 661L127 725ZM311 908L390 775H309L185 908H311Z" />
<glyph unicode="&#xc9;" horiz-adv-x="501" d="M127 725H542L532 652H222L190 408H430L419 336H180L145 73H455L445 0H40L128 661L127 725ZM418 908H544L384 775H302L418 908Z" />
<glyph unicode="&#xca;" horiz-adv-x="501" d="M127 725H542L532 652H222L190 408H430L419 336H180L145 73H455L445 0H40L128 661L127 725ZM354 834L273 775H203L322 908H407L494 774H423L354 834Z" />
<glyph unicode="&#xcb;" horiz-adv-x="501" d="M127 725H542L532 652H222L190 408H430L419 336H180L145 73H455L445 0H40L128 661L127 725ZM329 848Q329 822 310 802T263 782Q242 782 228 796T214 832Q214 858 234 878T280 898Q302 898 315 884T329 848ZM494 848Q494
822 474 802T427 782Q406 782 392 797T378 832Q378 858 398 878T444 898Q466 898 480 884T494 848Z" />
<glyph unicode="&#xcc;" horiz-adv-x="251" d="M130 725H236L138 0H42L131 661L130 725ZM411 908L490 775H409L285 908H411Z" />
<glyph unicode="&#xcd;" horiz-adv-x="251" d="M130 725H236L138 0H42L131 661L130 725ZM262 908H388L228 775H146L262 908Z" />
<glyph unicode="&#xce;" horiz-adv-x="251" d="M130 725H236L138 0H42L131 661L130 725ZM454 834L373 775H303L422 908H507L594 774H523L454 834Z" />
<glyph unicode="&#xcf;" horiz-adv-x="251" d="M130 725H236L138 0H42L131 661L130 725ZM429 848Q429 822 410 802T363 782Q342 782 328 796T314 832Q314 858 334 878T380 898Q402 898 415 884T429 848ZM594 848Q594 822 574 802T527 782Q506 782 492 797T478
832Q478 858 498 878T544 898Q566 898 580 884T594 848Z" />
<glyph unicode="&#xd0;" horiz-adv-x="677" d="M640 434Q640 353 618 275T550 136T435 37T273 0H40L129 661L128 725H375Q443 725 493 703T576 642T624 549T640 434ZM539 429Q539 472 530 511T501 582T448 633T364 652H224L147 73H279Q334 73 377 95T450 155T500
238T529 334T539 429ZM295 396H617L607 328H285L295 396Z" />
<glyph unicode="&#xd1;" horiz-adv-x="675" d="M249 725L476 258Q484 242 492 224T508 181Q510 204 512 222T517 257L580 725H659L561 -5H497L229 542Q222 558 215 575T199 613Q197 591 195 573T191 538L119 0H40L129 661L128 725H249ZM576 885Q571 862 557 839T522
800T474 784Q446 784 423 794T379 813T333 823Q320 823 310 815T294 795H243Q250 821 265 844T302 883T353 898Q380 898 402 889T445 869T486 859Q498 859 510 866T527 885H576Z" />
<glyph unicode="&#xd2;" horiz-adv-x="708" d="M303 -10Q235 -10 186 13T104 78T57 173T41 290Q41 371 64 450T132 593T246 696T406 735Q499 735 557 696T643 590T671 438Q671 355 648 275T578 131T464 28T303 -10ZM317 63Q372 63 414 86T486 148T534 235T561
335T570 433Q570 491 555 543T501 629T397 663Q341 663 299 640T227 577T179 490T151 390T142 292Q142 235 158 182T212 96T317 63ZM382 908L461 775H380L256 908H382Z" />
<glyph unicode="&#xd3;" horiz-adv-x="708" d="M303 -10Q235 -10 186 13T104 78T57 173T41 290Q41 371 64 450T132 593T246 696T406 735Q499 735 557 696T643 590T671 438Q671 355 648 275T578 131T464 28T303 -10ZM317 63Q372 63 414 86T486 148T534 235T561
335T570 433Q570 491 555 543T501 629T397 663Q341 663 299 640T227 577T179 490T151 390T142 292Q142 235 158 182T212 96T317 63ZM489 908H615L455 775H373L489 908Z" />
<glyph unicode="&#xd4;" horiz-adv-x="708" d="M303 -10Q235 -10 186 13T104 78T57 173T41 290Q41 371 64 450T132 593T246 696T406 735Q499 735 557 696T643 590T671 438Q671 355 648 275T578 131T464 28T303 -10ZM317 63Q372 63 414 86T486 148T534 235T561
335T570 433Q570 491 555 543T501 629T397 663Q341 663 299 640T227 577T179 490T151 390T142 292Q142 235 158 182T212 96T317 63ZM425 834L344 775H274L393 908H478L565 774H494L425 834Z" />
<glyph unicode="&#xd5;" horiz-adv-x="708" d="M303 -10Q235 -10 186 13T104 78T57 173T41 290Q41 371 64 450T132 593T246 696T406 735Q499 735 557 696T643 590T671 438Q671 355 648 275T578 131T464 28T303 -10ZM317 63Q372 63 414 86T486 148T534 235T561
335T570 433Q570 491 555 543T501 629T397 663Q341 663 299 640T227 577T179 490T151 390T142 292Q142 235 158 182T212 96T317 63ZM590 885Q585 862 571 839T536 800T488 784Q460 784 437 794T393 813T347 823Q334 823 324 815T308 795H257Q264 821 279 844T316
883T367 898Q394 898 416 889T459 869T500 859Q512 859 524 866T541 885H590Z" />
<glyph unicode="&#xd6;" horiz-adv-x="708" d="M303 -10Q235 -10 186 13T104 78T57 173T41 290Q41 371 64 450T132 593T246 696T406 735Q499 735 557 696T643 590T671 438Q671 355 648 275T578 131T464 28T303 -10ZM317 63Q372 63 414 86T486 148T534 235T561
335T570 433Q570 491 555 543T501 629T397 663Q341 663 299 640T227 577T179 490T151 390T142 292Q142 235 158 182T212 96T317 63ZM400 848Q400 822 381 802T334 782Q313 782 299 796T285 832Q285 858 305 878T351 898Q373 898 386 884T400 848ZM565 848Q565 822
545 802T498 782Q477 782 463 797T449 832Q449 858 469 878T515 898Q537 898 551 884T565 848Z" />
<glyph unicode="&#xd7;" horiz-adv-x="534" d="M261 200L88 49L49 95L221 246L90 397L144 444L273 293L446 444L485 397L313 246L444 95L390 49L261 200Z" />
<glyph unicode="&#xd8;" horiz-adv-x="708" d="M303 -10Q235 -10 186 13T104 78T57 173T41 290Q41 371 64 450T132 593T246 696T406 735Q499 735 557 696T643 590T671 438Q671 355 648 275T578 131T464 28T303 -10ZM317 63Q372 63 414 86T486 148T534 235T561
335T570 433Q570 491 555 543T501 629T397 663Q341 663 299 640T227 577T179 490T151 390T142 292Q142 235 158 182T212 96T317 63ZM322 -55L275 -16L902 778L952 739L322 -55Z" />
<glyph unicode="&#xd9;" horiz-adv-x="641" d="M210 725L145 243Q144 232 143 223T142 202Q142 162 156 131T202 81T283 63Q343 63 385 87T452 155T484 256L548 725H627L563 260Q553 184 520 123T426 26T269 -10Q208 -10 165 5T96 48T57 113T44 196Q44 208 45
222T48 249L104 662L103 725H210ZM352 908L431 775H350L226 908H352Z" />
<glyph unicode="&#xda;" horiz-adv-x="641" d="M210 725L145 243Q144 232 143 223T142 202Q142 162 156 131T202 81T283 63Q343 63 385 87T452 155T484 256L548 725H627L563 260Q553 184 520 123T426 26T269 -10Q208 -10 165 5T96 48T57 113T44 196Q44 208 45
222T48 249L104 662L103 725H210ZM459 908H585L425 775H343L459 908Z" />
<glyph unicode="&#xdb;" horiz-adv-x="641" d="M210 725L145 243Q144 232 143 223T142 202Q142 162 156 131T202 81T283 63Q343 63 385 87T452 155T484 256L548 725H627L563 260Q553 184 520 123T426 26T269 -10Q208 -10 165 5T96 48T57 113T44 196Q44 208 45
222T48 249L104 662L103 725H210ZM395 834L314 775H244L363 908H448L535 774H464L395 834Z" />
<glyph unicode="&#xdc;" horiz-adv-x="641" d="M210 725L145 243Q144 232 143 223T142 202Q142 162 156 131T202 81T283 63Q343 63 385 87T452 155T484 256L548 725H627L563 260Q553 184 520 123T426 26T269 -10Q208 -10 165 5T96 48T57 113T44 196Q44 208 45
222T48 249L104 662L103 725H210ZM370 848Q370 822 351 802T304 782Q283 782 269 796T255 832Q255 858 275 878T321 898Q343 898 356 884T370 848ZM535 848Q535 822 515 802T468 782Q447 782 433 797T419 832Q419 858 439 878T485 898Q507 898 521 884T535 848Z"
/>
<glyph unicode="&#xdd;" horiz-adv-x="484" d="M150 725L268 448L453 725H544L294 353L246 0H150L197 355L41 725H150ZM379 908H505L345 775H263L379 908Z" />
<glyph unicode="&#xde;" horiz-adv-x="544" d="M239 725L224 611H317Q377 611 425 594T502 537T531 430Q531 371 512 323T456 242T371 191T264 173H163L140 0H44L133 661L132 725H239ZM174 244H271Q321 244 356 268T411 332T430 419Q430 476 399 507T309 538H213L174
244Z" />
<glyph unicode="&#xdf;" horiz-adv-x="540" d="M-162 -196L-121 -135Q-109 -143 -100 -149T-80 -158T-50 -162Q-16 -162 7 -137T38 -51L103 424H31L39 491Q61 491 76 493T102 505T120 536Q139 595 165 640T233 710T340 735Q382 735 415 720T467 676T487 609Q487
565 471 534T432 480T384 439T344 404T328 365Q328 336 344 317T386 284T436 253T477 211T494 144Q494 93 470 58T407 5T320 -13Q286 -13 249 -3T179 29L223 93Q245 73 270 63T320 53Q355 53 380 73T405 132Q405 161 388 179T347 211T298 241T256 283T239 348Q239
384 255 409T294 456T341 497T380 542T396 601Q396 629 380 646T333 663Q299 663 275 647T235 604T210 546T196 484L122 -58Q110 -145 67 -187T-47 -230Q-77 -230 -98 -225T-134 -212T-162 -196Z" />
<glyph unicode="&#xe0;" horiz-adv-x="510" d="M418 496H465Q450 396 440 329T423 219T413 153T409 117T408 96Q408 79 414 68T439 57Q449 57 460 59T481 65L492 13Q476 4 455 -3T413 -11Q378 -11 357 13T333 72H329Q306 31 267 9T187 -13Q132 -13 98 15T49 91T33
194Q33 250 48 305T95 405T173 477T284 504Q315 504 347 492T407 448V385Q375 413 347 426T287 439Q243 439 212 418T160 362T130 283T121 195Q121 138 140 96T204 54Q237 54 262 75T305 134T336 216T355 311L369 417L418 496ZM262 733L338 579H256L137 733H262Z"
/>
<glyph unicode="&#xe1;" horiz-adv-x="510" d="M418 496H465Q450 396 440 329T423 219T413 153T409 117T408 96Q408 79 414 68T439 57Q449 57 460 59T481 65L492 13Q476 4 455 -3T413 -11Q378 -11 357 13T333 72H329Q306 31 267 9T187 -13Q132 -13 98 15T49 91T33
194Q33 250 48 305T95 405T173 477T284 504Q315 504 347 492T407 448V385Q375 413 347 426T287 439Q243 439 212 418T160 362T130 283T121 195Q121 138 140 96T204 54Q237 54 262 75T305 134T336 216T355 311L369 417L418 496ZM372 733H497L333 579H252L372 733Z"
/>
<glyph unicode="&#xe2;" horiz-adv-x="510" d="M418 496H465Q450 396 440 329T423 219T413 153T409 117T408 96Q408 79 414 68T439 57Q449 57 460 59T481 65L492 13Q476 4 455 -3T413 -11Q378 -11 357 13T333 72H329Q306 31 267 9T187 -13Q132 -13 98 15T49 91T33
194Q33 250 48 305T95 405T173 477T284 504Q315 504 347 492T407 448V385Q375 413 347 426T287 439Q243 439 212 418T160 362T130 283T121 195Q121 138 140 96T204 54Q237 54 262 75T305 134T336 216T355 311L369 417L418 496ZM306 658L221 580H151L274 733H359L442
579H371L306 658Z" />
<glyph unicode="&#xe3;" horiz-adv-x="510" d="M418 496H465Q450 396 440 329T423 219T413 153T409 117T408 96Q408 79 414 68T439 57Q449 57 460 59T481 65L492 13Q476 4 455 -3T413 -11Q378 -11 357 13T333 72H329Q306 31 267 9T187 -13Q132 -13 98 15T49 91T33
194Q33 250 48 305T95 405T173 477T284 504Q315 504 347 492T407 448V385Q375 413 347 426T287 439Q243 439 212 418T160 362T130 283T121 195Q121 138 140 96T204 54Q237 54 262 75T305 134T336 216T355 311L369 417L418 496ZM471 702Q466 678 452 655T417 616T368
600Q340 600 318 610T274 629T228 639Q215 639 205 631T189 612H138Q144 638 159 661T197 699T248 714Q275 714 297 705T340 685T380 675Q393 675 405 682T421 702H471Z" />
<glyph unicode="&#xe4;" horiz-adv-x="510" d="M418 496H465Q450 396 440 329T423 219T413 153T409 117T408 96Q408 79 414 68T439 57Q449 57 460 59T481 65L492 13Q476 4 455 -3T413 -11Q378 -11 357 13T333 72H329Q306 31 267 9T187 -13Q132 -13 98 15T49 91T33
194Q33 250 48 305T95 405T173 477T284 504Q315 504 347 492T407 448V385Q375 413 347 426T287 439Q243 439 212 418T160 362T130 283T121 195Q121 138 140 96T204 54Q237 54 262 75T305 134T336 216T355 311L369 417L418 496ZM281 664Q281 638 261 618T215 598Q193
598 180 613T166 648Q166 675 186 694T231 714Q253 714 267 700T281 664ZM445 664Q445 638 425 618T379 598Q357 598 344 613T330 648Q330 675 350 694T395 714Q417 714 431 700T445 664Z" />
<glyph unicode="&#xe5;" horiz-adv-x="510" d="M418 496H465Q450 396 440 329T423 219T413 153T409 117T408 96Q408 79 414 68T439 57Q449 57 460 59T481 65L492 13Q476 4 455 -3T413 -11Q378 -11 357 13T333 72H329Q306 31 267 9T187 -13Q132 -13 98 15T49 91T33
194Q33 250 48 305T95 405T173 477T284 504Q315 504 347 492T407 448V385Q375 413 347 426T287 439Q243 439 212 418T160 362T130 283T121 195Q121 138 140 96T204 54Q237 54 262 75T305 134T336 216T355 311L369 417L418 496ZM318 760Q357 760 382 734T407 671Q407
640 392 615T350 574T294 558Q257 558 231 584T205 647Q205 677 220 702T262 744T318 760ZM311 705Q289 705 274 691T258 654Q258 636 270 624T301 612Q322 612 338 627T354 663Q354 680 342 692T311 705Z" />
<glyph unicode="&#xe6;" horiz-adv-x="765" d="M380 156Q362 110 337 72T275 10T187 -13Q132 -13 98 15T49 91T33 194Q33 250 48 305T95 405T173 477T284 504Q305 504 330 500T384 479T438 427L407 385Q375 413 347 426T287 439Q243 439 212 418T160 362T130 283T121
195Q121 138 140 96T204 54Q244 54 272 84T320 165T349 272L380 156ZM550 60Q588 60 623 73T689 107L720 45Q705 34 685 24T642 6T594 -8T544 -13Q473 -13 429 17T364 97T343 207Q343 260 359 313T408 409T489 478T601 504Q638 504 669 493T721 458T741 395Q741
351 718 315T653 252T551 213T419 201V263Q450 260 482 264T545 279T599 306T637 343T651 390Q651 414 634 426T592 439Q552 439 522 420T472 367T442 294T431 214Q431 172 442 137T480 81T550 60Z" />
<glyph unicode="&#xe7;" horiz-adv-x="420" d="M378 390Q355 412 331 423T282 434Q241 434 211 415T161 364T131 293T121 215Q121 133 150 95T235 57Q261 57 292 65T359 89L383 36Q343 11 302 -1T218 -13Q162 -13 121 12T56 86T33 204Q33 259 49 312T98 409T178
478T289 504Q324 504 360 493T431 453L378 390ZM263 -116Q263 -147 243 -168T191 -202T123 -218L113 -173Q128 -171 145 -166T174 -149T187 -119Q187 -100 172 -90T138 -73L187 9H237L206 -45Q214 -48 228 -56T252 -78T263 -116Z" />
<glyph unicode="&#xe8;" horiz-adv-x="456" d="M292 504Q328 504 360 493T412 458T432 395Q432 351 409 315T344 252T242 213T110 201V263Q152 260 193 268T268 293T322 335T342 390Q342 414 325 426T282 439Q243 439 213 420T163 367T132 294T122 214Q122 134
156 97T248 60Q277 60 311 69T384 96L411 45Q396 34 376 24T333 6T285 -8T235 -13Q163 -13 119 17T54 97T34 207Q34 260 50 313T99 409T180 478T292 504ZM267 733L343 579H261L142 733H267Z" />
<glyph unicode="&#xe9;" horiz-adv-x="456" d="M292 504Q328 504 360 493T412 458T432 395Q432 351 409 315T344 252T242 213T110 201V263Q152 260 193 268T268 293T322 335T342 390Q342 414 325 426T282 439Q243 439 213 420T163 367T132 294T122 214Q122 134
156 97T248 60Q277 60 311 69T384 96L411 45Q396 34 376 24T333 6T285 -8T235 -13Q163 -13 119 17T54 97T34 207Q34 260 50 313T99 409T180 478T292 504ZM377 733H502L338 579H257L377 733Z" />
<glyph unicode="&#xea;" horiz-adv-x="456" d="M292 504Q328 504 360 493T412 458T432 395Q432 351 409 315T344 252T242 213T110 201V263Q152 260 193 268T268 293T322 335T342 390Q342 414 325 426T282 439Q243 439 213 420T163 367T132 294T122 214Q122 134
156 97T248 60Q277 60 311 69T384 96L411 45Q396 34 376 24T333 6T285 -8T235 -13Q163 -13 119 17T54 97T34 207Q34 260 50 313T99 409T180 478T292 504ZM312 658L227 580H157L280 733H365L448 579H377L312 658Z" />
<glyph unicode="&#xeb;" horiz-adv-x="456" d="M292 504Q328 504 360 493T412 458T432 395Q432 351 409 315T344 252T242 213T110 201V263Q152 260 193 268T268 293T322 335T342 390Q342 414 325 426T282 439Q243 439 213 420T163 367T132 294T122 214Q122 134
156 97T248 60Q277 60 311 69T384 96L411 45Q396 34 376 24T333 6T285 -8T235 -13Q163 -13 119 17T54 97T34 207Q34 260 50 313T99 409T180 478T292 504ZM286 664Q286 638 266 618T220 598Q198 598 185 613T171 648Q171 675 191 694T236 714Q258 714 272 700T286
664ZM450 664Q450 638 430 618T384 598Q362 598 349 613T335 648Q335 675 355 694T400 714Q422 714 436 700T450 664Z" />
<glyph unicode="&#xec;" horiz-adv-x="227" d="M131 0H38L96 434V491H189L131 58V0ZM378 733L454 579H372L253 733H378Z" />
<glyph unicode="&#xed;" horiz-adv-x="227" d="M131 0H38L96 434V491H189L131 58V0ZM232 733H357L193 579H112L232 733Z" />
<glyph unicode="&#xee;" horiz-adv-x="227" d="M131 0H38L96 434V491H189L131 58V0ZM422 658L337 580H267L390 733H475L558 579H487L422 658Z" />
<glyph unicode="&#xef;" horiz-adv-x="227" d="M131 0H38L96 434V491H189L131 58V0ZM397 664Q397 638 377 618T331 598Q309 598 296 613T282 648Q282 675 302 694T347 714Q369 714 383 700T397 664ZM561 664Q561 638 541 618T495 598Q473 598 460 613T446 648Q446
675 466 694T511 714Q533 714 547 700T561 664Z" />
<glyph unicode="&#xf0;" horiz-adv-x="512" d="M287 506Q304 506 318 503T346 494Q331 534 314 570T276 637L170 580L144 623L250 680Q238 696 226 711T203 738L265 774Q275 762 288 748T314 714L423 773L445 728L343 673Q375 625 404 566T453 439T473 303Q473
243 455 187T405 87T325 16T219 -10Q159 -10 118 18T55 93T34 200Q34 258 52 313T104 411T183 480T287 506ZM279 443Q242 443 216 425T172 376T144 313T129 249T124 200Q124 164 133 131T165 75T227 53Q258 53 282 67T326 106T357 162T375 228T382 295Q382 331
373 364T341 420T279 443Z" />
<glyph unicode="&#xf1;" horiz-adv-x="494" d="M167 501Q170 493 172 473T176 431Q196 448 220 465T272 493T332 504Q357 504 379 498T418 478T445 439T456 375Q456 354 453 330L417 57V0H324L365 306Q367 318 368 331T370 357Q370 377 365 393T347 419T307 429Q286
429 265 421T225 400T193 378T173 361L124 0H39L86 351Q88 365 89 378T90 404Q90 431 87 450T79 479T74 490L167 501ZM478 702Q473 678 459 655T424 616T375 600Q347 600 325 610T281 629T235 639Q222 639 212 631T196 612H145Q151 638 166 661T204 699T255 714Q282
714 304 705T347 685T387 675Q400 675 412 682T428 702H478Z" />
<glyph unicode="&#xf2;" horiz-adv-x="499" d="M216 -13Q152 -13 112 17T53 97T34 204Q34 257 50 310T97 407T175 477T283 504Q347 504 387 474T446 394T465 288Q465 234 449 181T401 84T324 14T216 -13ZM223 52Q261 52 290 72T338 127T367 202T377 283Q377 325
367 360T335 417T275 439Q237 439 209 419T161 364T132 290T122 208Q122 167 132 132T164 74T223 52ZM262 733L338 579H256L137 733H262Z" />
<glyph unicode="&#xf3;" horiz-adv-x="499" d="M216 -13Q152 -13 112 17T53 97T34 204Q34 257 50 310T97 407T175 477T283 504Q347 504 387 474T446 394T465 288Q465 234 449 181T401 84T324 14T216 -13ZM223 52Q261 52 290 72T338 127T367 202T377 283Q377 325
367 360T335 417T275 439Q237 439 209 419T161 364T132 290T122 208Q122 167 132 132T164 74T223 52ZM372 733H497L333 579H252L372 733Z" />
<glyph unicode="&#xf4;" horiz-adv-x="499" d="M216 -13Q152 -13 112 17T53 97T34 204Q34 257 50 310T97 407T175 477T283 504Q347 504 387 474T446 394T465 288Q465 234 449 181T401 84T324 14T216 -13ZM223 52Q261 52 290 72T338 127T367 202T377 283Q377 325
367 360T335 417T275 439Q237 439 209 419T161 364T132 290T122 208Q122 167 132 132T164 74T223 52ZM307 658L222 580H152L275 733H360L443 579H372L307 658Z" />
<glyph unicode="&#xf5;" horiz-adv-x="499" d="M216 -13Q152 -13 112 17T53 97T34 204Q34 257 50 310T97 407T175 477T283 504Q347 504 387 474T446 394T465 288Q465 234 449 181T401 84T324 14T216 -13ZM223 52Q261 52 290 72T338 127T367 202T377 283Q377 325
367 360T335 417T275 439Q237 439 209 419T161 364T132 290T122 208Q122 167 132 132T164 74T223 52ZM471 702Q466 678 452 655T417 616T368 600Q340 600 318 610T274 629T228 639Q215 639 205 631T189 612H138Q144 638 159 661T197 699T248 714Q275 714 297 705T340
685T380 675Q393 675 405 682T421 702H471Z" />
<glyph unicode="&#xf6;" horiz-adv-x="499" d="M216 -13Q152 -13 112 17T53 97T34 204Q34 257 50 310T97 407T175 477T283 504Q347 504 387 474T446 394T465 288Q465 234 449 181T401 84T324 14T216 -13ZM223 52Q261 52 290 72T338 127T367 202T377 283Q377 325
367 360T335 417T275 439Q237 439 209 419T161 364T132 290T122 208Q122 167 132 132T164 74T223 52ZM281 664Q281 638 261 618T215 598Q193 598 180 613T166 648Q166 675 186 694T231 714Q253 714 267 700T281 664ZM445 664Q445 638 425 618T379 598Q357 598 344
613T330 648Q330 675 350 694T395 714Q417 714 431 700T445 664Z" />
<glyph unicode="&#xf7;" horiz-adv-x="630" d="M403 414Q403 385 380 364T329 342Q306 342 290 357T274 395Q274 425 296 446T347 468Q371 468 387 453T403 414ZM72 278H571L561 209H63L72 278ZM358 93Q358 73 348 57T321 31T285 21Q261 21 245 36T229 75Q229
105 251 125T302 146Q326 146 342 131T358 93Z" />
<glyph unicode="&#xf8;" horiz-adv-x="499" d="M216 -13Q152 -13 112 17T53 97T34 204Q34 257 50 310T97 407T175 477T283 504Q347 504 387 474T446 394T465 288Q465 234 449 181T401 84T324 14T216 -13ZM223 52Q261 52 290 72T338 127T367 202T377 283Q377 325
367 360T335 417T275 439Q237 439 209 419T161 364T132 290T122 208Q122 167 132 132T164 74T223 52ZM302 -64L258 -30L713 571L760 537L302 -64Z" />
<glyph unicode="&#xf9;" horiz-adv-x="508" d="M172 491L129 171Q128 160 127 150T126 132Q126 91 142 73T190 54Q207 54 226 62T262 86T296 130T324 195T344 283L365 435L364 491H458L407 122Q406 116 406 109T405 97Q405 75 412 66T432 56Q446 56 459 61T474
66L486 13Q484 11 471 6T440 -6T406 -12Q389 -12 371 -3T340 24T327 69H323Q317 60 305 46T274 19T229 -3T166 -13Q100 -13 69 23T38 118Q38 137 41 157L79 436V491H172ZM247 733L323 579H241L122 733H247Z" />
<glyph unicode="&#xfa;" horiz-adv-x="508" d="M172 491L129 171Q128 160 127 150T126 132Q126 91 142 73T190 54Q207 54 226 62T262 86T296 130T324 195T344 283L365 435L364 491H458L407 122Q406 116 406 109T405 97Q405 75 412 66T432 56Q446 56 459 61T474
66L486 13Q484 11 471 6T440 -6T406 -12Q389 -12 371 -3T340 24T327 69H323Q317 60 305 46T274 19T229 -3T166 -13Q100 -13 69 23T38 118Q38 137 41 157L79 436V491H172ZM357 733H482L318 579H237L357 733Z" />
<glyph unicode="&#xfb;" horiz-adv-x="508" d="M172 491L129 171Q128 160 127 150T126 132Q126 91 142 73T190 54Q207 54 226 62T262 86T296 130T324 195T344 283L365 435L364 491H458L407 122Q406 116 406 109T405 97Q405 75 412 66T432 56Q446 56 459 61T474
66L486 13Q484 11 471 6T440 -6T406 -12Q389 -12 371 -3T340 24T327 69H323Q317 60 305 46T274 19T229 -3T166 -13Q100 -13 69 23T38 118Q38 137 41 157L79 436V491H172ZM292 658L207 580H137L260 733H345L428 579H357L292 658Z" />
<glyph unicode="&#xfc;" horiz-adv-x="508" d="M172 491L129 171Q128 160 127 150T126 132Q126 91 142 73T190 54Q207 54 226 62T262 86T296 130T324 195T344 283L365 435L364 491H458L407 122Q406 116 406 109T405 97Q405 75 412 66T432 56Q446 56 459 61T474
66L486 13Q484 11 471 6T440 -6T406 -12Q389 -12 371 -3T340 24T327 69H323Q317 60 305 46T274 19T229 -3T166 -13Q100 -13 69 23T38 118Q38 137 41 157L79 436V491H172ZM266 664Q266 638 246 618T200 598Q178 598 165 613T151 648Q151 675 171 694T216 714Q238
714 252 700T266 664ZM430 664Q430 638 410 618T364 598Q342 598 329 613T315 648Q315 675 335 694T380 714Q402 714 416 700T430 664Z" />
<glyph unicode="&#xfd;" horiz-adv-x="410" d="M-33 -162Q-1 -160 24 -149T71 -117T110 -66T145 3L41 491H131Q140 444 149 397T167 304T184 210T200 114Q220 163 241 210T283 303T327 396T371 491H452L206 -44Q182 -97 148 -139T66 -204T-42 -230L-33 -162ZM332
733H457L293 579H212L332 733Z" />
<glyph unicode="&#xfe;" horiz-adv-x="516" d="M319 504Q376 504 411 478T463 409T480 316Q480 251 463 192T413 87T333 14T226 -13Q196 -13 170 -3T128 18L104 -169L105 -224H11L135 708V765H228L184 436Q210 469 244 486T319 504ZM302 439Q269 439 245 421T204
373T176 308T159 238T148 174Q144 150 142 128T137 87Q153 69 179 61T228 52Q269 52 298 74T348 135T377 221T387 318Q387 349 380 376T355 421T302 439Z" />
<glyph unicode="&#xff;" horiz-adv-x="410" d="M-33 -162Q-1 -160 24 -149T71 -117T110 -66T145 3L41 491H131Q140 444 149 397T167 304T184 210T200 114Q220 163 241 210T283 303T327 396T371 491H452L206 -44Q182 -97 148 -139T66 -204T-42 -230L-33 -162ZM241
664Q241 638 221 618T175 598Q153 598 140 613T126 648Q126 675 146 694T191 714Q213 714 227 700T241 664ZM405 664Q405 638 385 618T339 598Q317 598 304 613T290 648Q290 675 310 694T355 714Q377 714 391 700T405 664Z" />
<glyph unicode="&#x2013;" horiz-adv-x="486" d="M-2 226L7 288H492L482 226H-2Z" />
<glyph unicode="&#x2014;" horiz-adv-x="836" d="M-2 226L7 288H842L832 226H-2Z" />
<glyph unicode="&#x2018;" horiz-adv-x="198" d="M169 728L200 694Q180 676 167 663T148 640T142 619Q142 610 152 601T171 579T181 547Q181 515 160 497T111 478Q79 478 61 499T43 550Q43 587 62 620T110 681T169 728Z" />
<glyph unicode="&#x2019;" horiz-adv-x="258" d="M215 655Q215 618 196 585T149 525T89 477L59 511Q68 520 81 532T105 558T116 586Q116 596 107 605T87 627T77 658Q77 690 98 708T147 726Q180 726 197 705T215 655Z" />
<glyph unicode="&#x201a;" horiz-adv-x="252" d="M172 52Q172 15 153 -18T105 -78T46 -126L16 -92Q26 -83 39 -71T63 -45T73 -18Q73 -8 63 1T44 22T34 55Q34 87 55 105T105 123Q137 123 154 102T172 52Z" />
<glyph unicode="&#x201c;" horiz-adv-x="388" d="M168 728L199 694Q179 676 166 663T147 640T141 619Q141 610 151 601T171 579T181 547Q181 515 160 497T110 478Q77 478 60 499T43 550Q43 587 62 620T110 681T168 728ZM358 728L389 694Q369 676 356 663T337 640T331
619Q331 610 341 601T361 579T371 547Q371 515 350 497T300 479Q268 479 251 500T233 550Q233 587 252 620T300 681T358 728Z" />
<glyph unicode="&#x201d;" horiz-adv-x="448" d="M215 655Q215 618 196 585T149 525T89 477L59 511Q68 520 81 532T105 558T116 586Q116 596 107 605T87 627T77 658Q77 690 98 708T147 727Q180 727 197 706T215 655ZM405 655Q405 618 386 585T338 525T278 477L249
511Q258 520 271 532T295 558T305 586Q305 596 296 605T276 627T266 658Q266 690 287 708T337 727Q370 727 387 706T405 655Z" />
<glyph unicode="&#x201e;" horiz-adv-x="440" d="M172 52Q172 15 153 -18T105 -78T46 -126L15 -92Q34 -76 47 -63T66 -39T73 -18Q73 -8 63 1T44 22T34 55Q34 87 55 105T104 124Q136 124 154 103T172 52ZM362 52Q362 15 343 -18T295 -78T236 -126L205 -92Q224 -76
237 -63T256 -39T263 -18Q263 -8 253 1T234 22T224 55Q224 87 245 105T294 124Q326 124 344 103T362 52Z" />
<glyph unicode="&#x2022;" horiz-adv-x="410" d="M355 376Q355 335 334 300T278 244T202 223Q150 223 118 256T85 338Q85 379 106 413T162 469T238 491Q290 491 322 458T355 376Z" />
<glyph unicode="&#x2039;" horiz-adv-x="304" d="M53 329L202 492L265 481L146 329L261 177L199 168L53 329Z" />
<glyph unicode="&#x203a;" horiz-adv-x="310" d="M50 176L172 328L58 479L122 490L265 328L111 166L50 176Z" />
</font>
</defs>
</svg>
